imdb
rating

7.0
My Week with Marilyn

My Week with Marilyn (2011)

Drama

Full description
quality   screener telesync dvd dvdrip bd

My Week With Marilyn 2011 720p BDRip XviD ac3 (avi) [X720]

Size 4.059 GB   1 seeders     Added 2012-03-18 03:06:13

Stream torrent
Starting‥ You need BitLord! Get it from BitLord.com
10
To download or stream you need BitLord. Visit them at BitLord.com
[img]image[/img]\r\n\r\n[img]image[/img]\r\n\r\n[img]image[/img]\r\n\r\nFILM TITLE: [COLOR=#DD0000]My Week with Marilyn (2011)[/COLOR]\r\n\r\nGenre:   Biography | Drama  \r\n\r\nRated R for some language\r\n\r\nRelease:  13 January 2012 (Sweden)\r\n\r\nDirector: Simon Curtis\r\n\r\nWriter: Adrian Hodges, Colin Clark (books)\r\n\r\nStars:  Michelle Williams, Eddie Redmayne and Kenneth Branagh\r\n\r\nCountry:  UK | USA\r\n\r\nLanguage:  English\r\n\r\nPlot:\r\nColin Clark, an employee of Sir Laurence Olivier's, documents the tense interaction \r\nbetween Olivier and Marilyn Monroe during production of The Prince and the Showgirl.\r\n\r\nIMDB Rating: 7.2/10 from 12,652 users   Metascore: 65/100\r\n\r\n[URL=http://http://www.imdb.com/title/tt1655420/]link description[/URL]\r\n\r\n[URL=http://http://www.youtube.com/watch?v=1-b48Aj8zkg]link description[/URL]\r\n\r\n[img]image[/img]\r\n\r\n[url=http://www.imagezon3.com/images/xHhc4.png][img]image[/img][/url]\r\n[url=http://www.imagezon3.com/images/HDCZh.png][img]image[/img][/url]\r\n[url=http://www.imagezon3.com/images/V1eOA.png][img]image[/img][/url]\r\n[url=http://www.imagezon3.com/images/OQo3G.png][img]image[/img][/url]\r\n[url=http://www.imagezon3.com/images/2Rl6B.png][img]image[/img][/url]\r\n\r\n[img]image[/img]\r\n\r\nGeneral\r\nComplete name                            : My Week With Marilyn 2011 720p BDRip XviD ac3 (avi) [X@720]\r\nFormat                                   : AVI\r\nFormat/Info                              : Audio Video Interleave\r\nFormat profile                           : OpenDML\r\nFile size                                : 3.73 GiB\r\nDuration                                 : 1h 38mn\r\nOverall bit rate                         : 5396 Kbps\r\nWriting library                          : VirtualDub build 32842/release\r\n\r\nVideo\r\nID                                       : 0\r\nFormat                                   : MPEG-4 Visual\r\nFormat profile                           : Simple@L5\r\nFormat settings, BVOP                    : No\r\nFormat settings, QPel                    : No\r\nFormat settings, GMC                     : No warppoints\r\nFormat settings, Matrix                  : Default (H.263)\r\nCodec ID                                 : XVID\r\nCodec ID/Hint                            : XviD\r\nDuration                                 : 1h 38mn\r\nBit rate                                 : 4746 Kbps\r\nWidth                                    : 1280 pixels\r\nHeight                                   : 544 pixels\r\nDisplay aspect ratio                     : 2.35:1\r\nFrame rate                               : 23.976 fps\r\nColor space                              : YUV\r\nChroma subsampling                       : 4:2:0\r\nBit depth                                : 8 bits\r\nScan type                                : Progressive\r\nCompression mode                         : Lossy\r\nBits/(Pixel*Frame)                       : 0.284\r\nStream size                              : 3.28 GiB (88%)\r\nWriting library                          : XviD 64\r\n\r\nAudio\r\nID                                       : 1\r\nFormat                                   : AC-3\r\nFormat/Info                              : Audio Coding 3\r\nMode extension                           : CM (complete main)\r\nCodec ID                                 : 2000\r\nDuration                                 : 1h 38mn\r\nBit rate mode                            : Constant\r\nBit rate                                 : 640 Kbps\r\nChannel(s)                               : 6 channels\r\nChannel positions                        : Front: L C R, Side: L R, LFE\r\nSampling rate                            : 48.0 KHz\r\nBit depth                                : 16 bits\r\nCompression mode                         : Lossy\r\nStream size                              : 453 MiB (12%)\r\nAlignment                                : Aligned on interleaves\r\nInterleave, duration                     : 42 ms (1.00 video frame)\r\nInterleave, preload duration             : 512 ms\r\n\r\n\r\nVideo Source: My Week With Marilyn (2011) 1080p BD-Remux (22.92GB)\r\n\r\nThanks: (hdclub.org)\r\n\r\n\r\nI provide a small sample, so please download this to check your \r\ncompatibility first if you are unsure.\r\n\r\n\r\nI am providing tutorials here :-\r\nhttp://tutorials4all.freeforums.org/index.php?sid=fb109f91dedb2901c4d0b39625c431f7\r\nThis is for opening my mkv encodes, remuxing to Bluray for PS3 or mkv or mp4 with \r\nadditional or selected audio or subtitles which I will now start supplying, so if your\r\nfed up finding the right encode to match your player - DO IT YOURSELF - it's simples.\r\n\r\nI allow transfer of my encodes to any site, just give me credit, as I give credit to my sources. \r\n\r\n\r\nHash: 1FEBFAB2AA4B91DA615A1892B742DABA71D1C7E1\r\n\r\n[CODE]Trackers:\r\nhttp://inferno.demonoid.me:3414/announce\r\nhttp://inferno.demonoid.me:3418/announce\r\nhttp://tracker.torrent.to:2710/announce\r\nudp://tracker.1337x.org:80/announce\r\nudp://tracker.openbittorrent.com:80/announce[/CODE]\r\n\r\n[url=http://www.imagezon3.com/images/ER0t4.png][img]image[/img][/url]\r\n000005
(SAMPLE) My Week With Marilyn 2011.avi 56.091 MB
My Week With Marilyn 2011 720p BDRip XviD ac3 (avi) [X@720] Post Info.txt 4.907 KB
My Week With Marilyn 2011.avi 4.003 GB
Gathering some info...

Register and log in Isohunt and see no captcha anymore!

4000 symbols left
Hash 1FEBFAB2AA4B91DA615A1892B742DABA71D1C7E1

Related torrents for "My Week With Marilyn 2011 720p BDRip XviD ac3 (avi) [X720]"

Torrent search:

hd bd 2011