imdb
rating

5.6
X

X (2011)

Action, Thriller, Romance

Full description
quality   telesync dvd dvdrip x264 hd bd

War Horse 2011 720p BDRip XviD ac3 (avi) X@720

Size 5.146 GB   1 seeders     Added 2012-03-19 01:33:19

Stream torrent
Starting‥ You need BitLord! Get it from BitLord.com
To download or stream you need BitLord. Visit them at BitLord.com
[img]image[/img]

[img]image[/img]

[img]image[/img]

FILM TITLE: [COLOR=#DD0000]War Horse (2011)[/COLOR]

Rated PG-13 for intense sequences of war violence

Genre:   Drama | History | War  

Release:  13 January 2012 (UK)

Director: Steven Spielberg

Writer: Lee Hall (screenplay), Richard Curtis (screenplay)

Stars:  Jeremy Irvine, Emily Watson and David Thewlis

Country: USA

Language: English | German (some dialogue)

Plot:
Young Albert enlists to serve in World War I after his beloved horse is sold to the cavalry. 
Albert's hopeful journey takes him out of England and across Europe as the war rages on.

IMDB Rating: 7.2/10 from 28,491 users   Metascore: 72/100 

[URL=http://http://www.imdb.com/title/tt1568911/]link description[/URL]

[URL=http://http://www.youtube.com/watch?v=APrpsM3VOAI]link description[/URL]

[img]image[/img]

[url=http://www.imagezon3.com/images/xJasl.png][img]image[/img][/url]
[url=http://www.imagezon3.com/images/XHTeR.png][img]image[/img][/url]
[url=http://www.imagezon3.com/images/nY4Sf.png][img]image[/img][/url]
[url=http://www.imagezon3.com/images/Ir6X7.png][img]image[/img][/url]
[url=http://www.imagezon3.com/images/Szcoh.png][img]image[/img][/url]

[img]image[/img]

General
Complete name                            : War Horse 2011 720p BDRip XviD ac3 (avi) [X@720]
Format                                   : AVI
Format/Info                              : Audio Video Interleave
Format profile                           : OpenDML
File size                                : 4.76 GiB
Duration                                 : 2h 26mn
Overall bit rate                         : 4644 Kbps
Writing library                          : VirtualDub build 32842/release

Video
ID                                       : 0
Format                                   : MPEG-4 Visual
Format profile                           : Simple@L5
Format settings, BVOP                    : No
Format settings, QPel                    : No
Format settings, GMC                     : No warppoints
Format settings, Matrix                  : Default (H.263)
Codec ID                                 : XVID
Codec ID/Hint                            : XviD
Duration                                 : 2h 26mn
Bit rate                                 : 3995 Kbps
Width                                    : 1280 pixels
Height                                   : 528 pixels
Display aspect ratio                     : 2.40:1
Frame rate                               : 23.976 fps
Color space                              : YUV
Chroma subsampling                       : 4:2:0
Bit depth                                : 8 bits
Scan type                                : Progressive
Compression mode                         : Lossy
Bits/(Pixel*Frame)                       : 0.247
Stream size                              : 4.09 GiB (86%)
Writing library                          : XviD 64

Audio
ID                                       : 1
Format                                   : AC-3
Format/Info                              : Audio Coding 3
Mode extension                           : CM (complete main)
Codec ID                                 : 2000
Duration                                 : 2h 26mn
Bit rate mode                            : Constant
Bit rate                                 : 640 Kbps
Channel(s)                               : 6 channels
Channel positions                        : Front: L C R, Side: L R, LFE
Sampling rate                            : 48.0 KHz
Bit depth                                : 16 bits
Compression mode                         : Lossy
Stream size                              : 671 MiB (14%)
Alignment                                : Aligned on interleaves
Interleave, duration                     : 42 ms (1.00 video frame)
Interleave, preload duration             : 512 ms


Video Source: War.Horse.2011.BluRay.1080p.AVC.DTS-HD.MA5.1-CHDBits (39.8GB)

Thanks: (chdbits.org)


I provide a small sample, so please download this to check your 
compatibility first if you are unsure.


I am providing tutorials here :-
http://tutorials4all.freeforums.org/index.php?sid=fb109f91dedb2901c4d0b39625c431f7
This is for opening my mkv encodes, remuxing to Bluray for PS3 or mkv or mp4 with 
additional or selected audio or subtitles which I will now start supplying, so if your
fed up finding the right encode to match your player - DO IT YOURSELF - it's simples.

I allow transfer of my encodes to any site, just give me credit, as I give credit to my sources.  


Hash: 0233601FE4CE5BA9E34D582D0EF5F56002CE37F6

[CODE]Trackers:
http://inferno.demonoid.me:3414/announce
http://tracker.torrent.to:2710/announce
udp://tracker.1337x.org:80/announce
udp://tracker.openbittorrent.com:80/announce[/CODE]

[url=http://www.imagezon3.com/images/ER0t4.png][img]image[/img][/url]
000009
(SAMPLE) War Horse 2011.avi 37.87 MB
Torrent downloaded from Demonoid.me.txt 46 B
War Horse 2011 720p BDRip XviD ac3 (avi) [X@720] Post Info.txt 4.964 KB
Gathering some info...

Register and log in Isohunt and see no captcha anymore!

4000 symbols left
Hash 0233601FE4CE5BA9E34D582D0EF5F56002CE37F6

Related torrents for "War Horse 2011 720p BDRip XviD ac3 (avi) X@720"

Torrent search:

hd bd 2011