Vanessa da Mata - Multishow ao Vivo

Size 369.792 MB   0 seeders     Added 2012-03-20 01:34:14

Stream torrent
Starting‥ You need BitLord! Get it from 1BitLord.com
10
To download or stream you need BitLord. Visit them at BitLord.com
[CENTER][img]image[/img]

[img]image[/img]

[img]image[/img]

[img]image[/img]

[b]Artist: Vanessa Da Mata
Title Of Album: MultiShow ao vivo (Jardin e Perfumes de Sim) 
Gravado no dia 27 de Novembro de 2008 Em Paraty, R. de Janeiro
Etichetta: Sony Music Entertainment Brasil ltda.
Pubblicazione: 2009
Genre: MPB
Style: POP Brasiliano
Source: CD
Playing Time: 52.29
Total Size: 352,58 MB
Quality: FLAC+Cue+Log+Info+Cover
Bitrate: Lossless[/b]

[img]image[/img]

[b]1. Báu 4:08
2. Vermelho (con Sly Dumbar e Robbie Shakespiere) 4:03
3. Quando Um Homem Tem Uma Mangueira no Quintal 2:15
4. Ilegais (con Sly Dumbar e Robbie Shakespiere) 3:32
5. Ainda Bem 4:08
6. Amado 4:29
7. Fugiu Com A Novela 3:12
8. Um Dia, Um Adeus 2:50
9. Viagem / Mamãe Passou Açúcar em Mim 3:27
10. Não me deixe só 3:09
11. Acode 3:34
12. Você vai me destruir 4:18
13. Ai, Ai, Ai... 4:38
14. Boa Sorte/Good Luck (Con Ben Harper) 4:37[/b]

[img]image[/img]

È stato registrato dal vivo nel centro storico di Paraty, e propone le canzoni del repertorio che hanno segnato la carriera dell'artista. Le sue canzoni Ai, Ai, Ai... e Boa Sorte/Good Luck, in duetto con Ben Harper sono arrivate alla prima posizione dei singoli più venduti in Brasile. I singoli pubblicati in tutto il mondo nel 2008 hanno contribuito a far conoscere la cantante al di fuori del Brasile. Il brano è cantato sia in lingua inglese che in portoghese.

Nel 2006 è stata premiata con il Prêmio Multishow de Música Brasileira e vinto un Grammy con il brano: 
Ai, Ai, Ai....
Buon ascolto a tutti!!

[img]image[/img]

Vanessa da Mata è nata il 10 febbraio 1976 ad Alto Garças, nella regione del Mato Grosso. 
Vanessa da Mata ha smesso da tempo i panni della promessa Musica Popolare Brasiliana per vestire quelli della stella. Virata la boa dei trent'anni, la cantante e compositrice, è una realtà della musica brasiliana contemporanea. Da alcuni ingenerosamente definita «un clone di Marisa Monte», da altri «l'alternativa a Maria Rita» o «la nuova Ana Carolina», la da Mata è invece artista singolare e completa, largamente considerata la punta di diamante del pop d'autore verdeoro. Modella e cestista mancata, inizia la sua carriera una dozzina d'anni fa a São Paulo, all'interno di alcune band reggae, tra cui quella di sole donne Shalla-bal. Il suo cammino prosegue con la partecipazione al progetto "Novo canto" di Rádio Jb Fm e ai programmi "Ensaio" e "Bem Brasil" di Tv Cultura. Il suo valore è consacrato, all'inizio del nuovo millennio, dal successo di alcuni suoi brani interpretati da Chico César, Maria Bethânia, Caetano Veloso e Daniela Mercury.

[img]image[/img]
Exact Audio Copy V1.0 beta 3 from 29. August 2011

EAC extraction logfile from 18. March 2012, 21:51

Vanessa Da Mata / Multishow Ao Vivo

Used drive  : HL-DT-STDVDRAM GSA-T40N   Adapter: 0  ID: 0

Read mode               : Secure
Utilize accurate stream : Yes
Defeat audio cache      : Yes
Make use of C2 pointers : No

Read offset correction                      : 667
Overread into Lead-In and Lead-Out          : No
Fill up missing offset samples with silence : Yes
Delete leading and trailing silent blocks   : No
Null samples used in CRC calculations       : Yes
Used interface                              : Native Win32 interface for Win NT & 2000
Gap handling                                : Appended to previous track

Used output format              : User Defined Encoder
Selected bitrate                : 896 kBit/s
Quality                         : High
Add ID3 tag                     : No
Command line compressor         : C:\Program Files\Exact Audio Copy\FLAC\FLAC.EXE
Additional command line options : -8 -V -T "ARTIST=%artist%" -T "TITLE=%title%" -T "ALBUM=%albumtitle%" -T "DATE=%year%" -T "TRACKNUMBER=%tracknr%" -T "GENRE=%genre%" -T "COMMENT=%comment%" -T "BAND=%albuminterpret%" -T "ALBUMARTIST=%albuminterpret%" -T "COMPOSER=%composer%" %haslyrics%--tag-from-file=LYRICS="%lyricsfile%"%haslyrics% -T "DISCNUMBER=%cdnumber%" -T "TOTALDISCS=%totalcds%" -T "TOTALTRACKS=%numtracks%" %hascover%--picture="%coverfile%"%hascover% %source% -o %dest%


TOC of the extracted CD

     Track |   Start  |  Length  | Start sector | End sector 
    ---------------------------------------------------------
        1  |  0:00.00 |  4:08.65 |         0    |    18664   
        2  |  4:08.65 |  4:03.33 |     18665    |    36922   
        3  |  8:12.23 |  2:15.65 |     36923    |    47112   
        4  | 10:28.13 |  3:32.64 |     47113    |    63076   
        5  | 14:01.02 |  4:08.43 |     63077    |    81719   
        6  | 18:09.45 |  4:29.34 |     81720    |   101928   
        7  | 22:39.04 |  3:12.26 |    101929    |   116354   
        8  | 25:51.30 |  2:50.13 |    116355    |   129117   
        9  | 28:41.43 |  3:27.14 |    129118    |   144656   
       10  | 32:08.57 |  3:09.05 |    144657    |   158836   
       11  | 35:17.62 |  3:34.69 |    158837    |   174955   
       12  | 38:52.56 |  4:18.60 |    174956    |   194365   
       13  | 43:11.41 |  4:39.54 |    194366    |   215344   
       14  | 47:51.20 |  4:37.71 |    215345    |   236190   


Track  1

     Filename F:\MY EAC[.FLAC]\Vanessa da Mata - Multishow ao Vivo\01 - Baú.flac

     Pre-gap length  0:00:02.00

     Peak level 98.1 %
     Extraction speed 1.8 X
     Track quality 100.0 %
     Test CRC 241264B6
     Copy CRC 241264B6
     Accurately ripped (confidence 2)  [919401C3]  (AR v2)
     Copy OK

Track  2

     Filename F:\MY EAC[.FLAC]\Vanessa da Mata - Multishow ao Vivo\02 - Vermelho.flac

     Peak level 98.8 %
     Extraction speed 2.0 X
     Track quality 100.0 %
     Test CRC FDFAAFDC
     Copy CRC FDFAAFDC
     Accurately ripped (confidence 2)  [60C551E3]  (AR v2)
     Copy OK

Track  3

     Filename F:\MY EAC[.FLAC]\Vanessa da Mata - Multishow ao Vivo\03 - Quando Um Homem Tem Uma Mangueira No Quintal.flac

     Peak level 98.5 %
     Extraction speed 1.9 X
     Track quality 100.0 %
     Test CRC 057B4B43
     Copy CRC 057B4B43
     Accurately ripped (confidence 2)  [FBDB04E8]  (AR v2)
     Copy OK

Track  4

     Filename F:\MY EAC[.FLAC]\Vanessa da Mata - Multishow ao Vivo\04 - Ilegais.flac

     Peak level 98.8 %
     Extraction speed 2.0 X
     Track quality 100.0 %
     Test CRC DFAA06C1
     Copy CRC DFAA06C1
     Accurately ripped (confidence 2)  [EB17E09A]  (AR v2)
     Copy OK

Track  5

     Filename F:\MY EAC[.FLAC]\Vanessa da Mata - Multishow ao Vivo\05 - Ainda Bem.flac

     Peak level 99.2 %
     Extraction speed 2.2 X
     Track quality 100.0 %
     Test CRC 2AC89EB3
     Copy CRC 2AC89EB3
     Accurately ripped (confidence 2)  [76C6B907]  (AR v2)
     Copy OK

Track  6

     Filename F:\MY EAC[.FLAC]\Vanessa da Mata - Multishow ao Vivo\06 - Amado.flac

     Peak level 98.8 %
     Extraction speed 2.4 X
     Track quality 100.0 %
     Test CRC 2371869F
     Copy CRC 2371869F
     Accurately ripped (confidence 2)  [C86C1BD0]  (AR v2)
     Copy OK

Track  7

     Filename F:\MY EAC[.FLAC]\Vanessa da Mata - Multishow ao Vivo\07 - Fugiu Com A Novela.flac

     Peak level 98.1 %
     Extraction speed 2.5 X
     Track quality 100.0 %
     Test CRC 1C66A2B9
     Copy CRC 1C66A2B9
     Accurately ripped (confidence 2)  [5DE0938F]  (AR v2)
     Copy OK

Track  8

     Filename F:\MY EAC[.FLAC]\Vanessa da Mata - Multishow ao Vivo\08 - Um Dia,Um Adeus.flac

     Peak level 98.0 %
     Extraction speed 2.3 X
     Track quality 100.0 %
     Test CRC 86511510
     Copy CRC 86511510
     Accurately ripped (confidence 2)  [A3409C78]  (AR v2)
     Copy OK

Track  9

     Filename F:\MY EAC[.FLAC]\Vanessa da Mata - Multishow ao Vivo\09 - Viagem,Mamãe Passou Açucar Em Mim.flac

     Peak level 98.1 %
     Extraction speed 2.8 X
     Track quality 100.0 %
     Test CRC 7508B9B2
     Copy CRC 7508B9B2
     Accurately ripped (confidence 2)  [225964A7]  (AR v2)
     Copy OK

Track 10

     Filename F:\MY EAC[.FLAC]\Vanessa da Mata - Multishow ao Vivo\10 - Não Me Deixe Só.flac

     Peak level 98.1 %
     Extraction speed 2.4 X
     Track quality 100.0 %
     Test CRC CD41D660
     Copy CRC CD41D660
     Accurately ripped (confidence 2)  [9E4E109F]  (AR v2)
     Copy OK

Track 11

     Filename F:\MY EAC[.FLAC]\Vanessa da Mata - Multishow ao Vivo\11 - Acode.flac

     Peak level 98.8 %
     Extraction speed 2.6 X
     Track quality 100.0 %
     Test CRC 595D924A
     Copy CRC 595D924A
     Accurately ripped (confidence 2)  [B55184E4]  (AR v2)
     Copy OK

Track 12

     Filename F:\MY EAC[.FLAC]\Vanessa da Mata - Multishow ao Vivo\12 - Você Vai Me Destruir.flac

     Peak level 98.1 %
     Extraction speed 2.7 X
     Track quality 100.0 %
     Test CRC 1293389A
     Copy CRC 1293389A
     Accurately ripped (confidence 2)  [E6B4EB5C]  (AR v2)
     Copy OK

Track 13

     Filename F:\MY EAC[.FLAC]\Vanessa da Mata - Multishow ao Vivo\13 - Ai,Ai,Ai.flac

     Peak level 98.8 %
     Extraction speed 2.8 X
     Track quality 100.0 %
     Test CRC D26633C6
     Copy CRC D26633C6
     Accurately ripped (confidence 2)  [9597A2A8]  (AR v2)
     Copy OK

Track 14

     Filename F:\MY EAC[.FLAC]\Vanessa da Mata - Multishow ao Vivo\14 - Boa Sorte,Good Luck (Bonus Track).flac

     Pre-gap length  0:00:01.44

     Peak level 98.1 %
     Extraction speed 3.2 X
     Track quality 100.0 %
     Test CRC B544A6C4
     Copy CRC B544A6C4
     Accurately ripped (confidence 2)  [7A40534F]  (AR v2)
     Copy OK


All tracks accurately ripped

No errors occurred

End of status report

==== Log checksum 68519D1662E00DC0A9B099B3D2C8DA7B1436AA1D0C4637C0AEF44260B0F96A6F ====

Per i primi 10: 24 su 24:80/90 Kb/s[/CENTER]
00._%VanessaDaMata%V MultishowAoVivo%.nfo 2.521 KB
01 - Baú.flac 30.54 MB
02 - Vermelho.flac 28.415 MB
Gathering some info...

Register and log in Isohunt and see no captcha anymore!

4000 symbols left
Hash 647FE82CECABBE4F1C853BE4FF430FB42AF82D07

Related torrents for "Vanessa da Mata - Multishow ao Vivo"