Hope Ft. Jason Mraz - Love Love Love (h264mp4)

Size 91.405 MB   0 seeders     Added 2012-03-20 02:38:20

Stream torrent
Starting‥ You need BitLord! Get it from BitLord.com
To download or stream you need BitLord. Visit them at BitLord.com
General
Format : MPEG-4
Format profile : Base Media
Codec ID : isom
File size : 87.2 MiB
Duration : 3mn 36s
Overall bit rate : 3 373 Kbps
Encoded date : UTC 2012-03-18 17:29:54
Tagged date : UTC 2012-03-18 17:29:54
Video
ID : 1
Format : AVC
Format/Info : Advanced Video Codec
Format profile : High@L3.0
Format settings, CABAC : Yes
Format settings, ReFrames : 2 frames
Codec ID : avc1
Codec ID/Info : Advanced Video Coding
Duration : 3mn 36s
Bit rate mode : Variable
Bit rate : 3 323 Kbps
Maximum bit rate : 11.4 Mbps
Width : 720 pixels
Height : 480 pixels
Display aspect ratio : 4:3
Original display aspect ratio : 4:3
Frame rate mode : Constant
Frame rate : 29.970 fps
Standard : NTSC
Color space : YUV
Chroma subsampling : 4:2:0
Bit depth : 8 bits
Scan type : Progressive
Bits/(Pixel*Frame) : 0.321
Stream size : 85.2 MiB (98%)
Audio
ID : 2
Format : AAC
Format/Info : Advanced Audio Codec
Format profile : LC
Codec ID : 40
Duration : 3mn 36s
Bit rate mode : Variable
Bit rate : 68.9 Kbps
Maximum bit rate : 80.2 Kbps
Channel(s) : 2 channels
Channel positions : Front: L R
Sampling rate : 48.0 KHz
Compression mode : Lossy
Stream size : 1.78 MiB (2%)
 
HopeFt.JasonMraz-LoveLoveLove-musicvideos-hq.net.mp4 91.405 MB
Gathering some info...

Register and log in Isohunt and see no captcha anymore!

4000 symbols left
Hash 0F59E313E1FBC1566D6D1ED8D5F798BC33196CD0