Hosanna - Ekk Deewana Tha 2012 HD [ Full Song ] nnY dX mp4

Size 83.131 MB   10 seeders     Added 2012-03-20 02:38:24

Stream torrent
Starting‥ You need BitLord! Get it from BitLord.com
8.9
To download or stream you need BitLord. Visit them at BitLord.com
Hosanna - Ekk Deewana Tha 2012 HD [ Full Song ] ^^@nnY dX^^\r\n\r\n[URL=http://nimga.com/v/8biRr][IMG]image[/IMG][/URL]\r\n\r\nGeneral\r\n\r\n\r\nFormat                                   : MPEG-4\r\nFormat profile                           : Base Media\r\nCodec ID                                 : isom\r\nFile size                                : 79.3 MiB\r\nDuration                                 : 5mn 8s\r\nOverall bit rate mode                    : Variable\r\nOverall bit rate                         : 2 154 Kbps\r\nWriting application                      : AVM.EXE\r\n\r\nVideo\r\n\r\nID                                       : 1\r\nFormat                                   : AVC\r\nFormat/Info                              : Advanced Video Codec\r\nFormat profile                           : Baseline@L3.0\r\nFormat settings, CABAC                   : No\r\nFormat settings, ReFrames                : 3 frames\r\nCodec ID                                 : avc1\r\nCodec ID/Info                            : Advanced Video Coding\r\nDuration                                 : 5mn 8s\r\nBit rate                                 : 1 990 Kbps\r\nWidth                                    : 720 pixels\r\nHeight                                   : 304 pixels\r\nDisplay aspect ratio                     : 2.35:1\r\nFrame rate mode                          : Constant\r\nFrame rate                               : 25.000 fps\r\nColor space                              : YUV\r\nChroma subsampling                       : 4:2:0\r\nBit depth                                : 8 bits\r\nScan type                                : Progressive\r\nBits/(Pixel*Frame)                       : 0.364\r\nStream size                              : 73.3 MiB (92%)\r\n\r\nAudio\r\n\r\nID                                       : 2\r\nFormat                                   : AAC\r\nFormat/Info                              : Advanced Audio Codec\r\nFormat profile                           : LC\r\nCodec ID                                 : 40\r\nDuration                                 : 5mn 7s\r\nBit rate mode                            : Variable\r\nBit rate                                 : 160 Kbps\r\nChannel(s)                               : 2 channels\r\nChannel positions                        : Front: L R\r\nSampling rate                            : 44.1 KHz\r\nCompression mode                         : Lossy\r\nStream size                              : 5.86 MiB (7%)\r\n\r\n[URL=http://nimga.com/v/YxSDI][IMG]image[/IMG][/URL]
Hosanna - Ekk Deewana Tha 2012 HD [ Full Song ] ^^@nnY dX^^.mp4 83.131 MB
Gathering some info...

Register and log in Isohunt and see no captcha anymore!

4000 symbols left
Hash 34B6C4AA371EAA5CD077347BE95122DE9FA5DE69

Related torrents for "Hosanna - Ekk Deewana Tha 2012 HD [ Full Song ] nnY dX mp4"

Torrent search:

2012