imdb
rating

6.8
The Vow

The Vow (2012)

Drama, Romance

Full description

The Vow 2012 720p BluRay DTS x264-SiC [PHD]

Size 890.718 MB   0 seeders     Added 2012-03-20 19:59:47

Stream torrent
Starting‥ You need BitLord! Get it from 1BitLord.com
To download or stream you need BitLord. Visit them at BitLord.com
The Vow (2012)
PG_13  104 min  -  Drama | Romance

A car accident puts Paige (McAdams) in a coma, and when she wakes up with severe memory loss, her husband Leo (Tatum) works to win her heart again.

Director:
Michael Sucsy
Writers:
Jason Katims, Abby Kohn (screenplay), and 2 more credits »
Stars:
Rachel McAdams, Channing Tatum and Sam Neill 

----------MEDiA iNFO------------

General

Format                           : avi
Duration                         : 1h 22mn
Overall bit rate                 : 6 509 Kbps
Encoded date                     : UTC 2012-03-17 11:39:54
Writing application              : mkvmerge v4.9.1 ('Ich will') built on Jul 11 2011 23:53:15
Writing library                  : libebml v1.2.1 + libmatroska v1.1.1

Video
ID                               : 1
Format                           : AVC
Format/Info                      : Advanced Video Codec
Format profile                   : High@L4.1
Format settings, CABAC           : Yes
Format settings, ReFrames        : 4 frames
Format settings, GOP             : M=4, N=58
Codec ID                         : V_MPEG4/ISO/AVC
Duration                         : 1h 22mn
Bit rate                         : 4 999 Kbps
Width                            : 1 280 pixels
Height                           : 528 pixels
Display aspect ratio             : 2.40:1
Frame rate                       : 23.976 fps
Color space                      : YUV
Chroma subsampling               : 4:2:0
Bit depth                        : 8 bits
Scan type                        : Progressive
Bits/(Pixel*Frame)               : 0.309
Stream size                      : 2.81 GiB (75%)
Writing library                  : x264 core 116 r2074 2641b9e
Encoding settings                : cabac=1 / ref=3 / deblock=1:0:0 / analyse=0x3:0x113 / me=hex / subme=7 / psy=1 / psy_rd=1.00:0.00 / mixed_ref=1 / me_range=16 / chroma_me=1 / trellis=1 / 8x8dct=1 / cqm=0 / deadzone=21,11 / fast_pskip=1 / chroma_qp_offset=-2 / threads=3 / sliced_threads=0 / nr=0 / decimate=1 / interlaced=0 / bluray_compat=0 / constrained_intra=0 / bframes=3 / b_pyramid=2 / b_adapt=1 / b_bias=0 / direct=1 / weightb=1 / open_gop=0 / weightp=2 / keyint=250 / keyint_min=23 / scenecut=40 / intra_refresh=0 / rc_lookahead=40 / rc=2pass / mbtree=1 / bitrate=4999 / ratetol=1.0 / qcomp=0.60 / qpmin=0 / qpmax=69 / qpstep=4 / cplxblur=20.0 / qblur=0.5 / ip_ratio=1.40 / aq=1:1.00
Language                         : English

Audio
ID                               : 2
Format                           : DTS
Format/Info                      : Digital Theater Systems
Codec ID                         : A_DTS
Duration                         : 1h 22mn
Bit rate mode                    : Constant
Bit rate                         : 1 510 Kbps
Channel(s)                       : 6 channels
Channel positions                : Front: L C R, Side: L R, LFE
Sampling rate                    : 48.0 KHz
Bit depth                        : 24 bits
Compression mode                 : Lossy
Stream size                      : 892 MiB (23%)
Language                         : English

Note: Oldschool slasher titties and gore... in HD. Ripped from a retail Blu Ray disc. Source: RA Retail Blu-Ray / Our Own Respects to T00NG0D, ELEKTRI4KA, PA, YeFsTe, MrRep and everyone in the struggle...


IMAGES:

image
The Vow 2012 720p BluRay DTS x264-SiC [PHD]/2012 720p BluRay DTS x264-SiC [PHD].nfo 2.95 KB
The Vow 2012 720p BluRay DTS x264-SiC [PHD]/Subs ENG.srt 82.896 KB
The Vow 2012 720p BluRay DTS x264-SiC [PHD]/Subs Rus.srt 66.476 KB
Gathering some info...

Register and log in Isohunt and see no captcha anymore!

4000 symbols left
Hash a42aa8570f03f3b7c49af55e63cf68cd5d2a1d5c

Related torrents for "The Vow 2012 720p BluRay DTS x264-SiC [PHD]"

Torrent search:

x264 hd 2012 bd