21 Jump Street (2012) DVDSRC.AC3.NEXT

Size 6.812 GB   0 seeders     Added 2012-03-22 03:05:03

Stream torrent
Starting‥ You need BitLord! Get it from BitLord.com
To download or stream you need BitLord. Visit them at BitLord.com
IMDb: http://www.imdb.com/title/tt1232829/ ------------------------------------------ 21 Jump Street (2012) DVDScR_XviD.AC3 - ACNEX --------------------------------------------- Screenshots: ----------- ------------------- image/ image/ image/ image/ image/ image/ image/ image/ image/ image/ Details: ------- Video ID : 0 Format : MPEG-4 Visual Format profile : AdvancedSimple@L5 Format settings, BVOP : Yes Format settings, QPel : No Format settings, GMC : No warppoints Format settings, Matrix : Custom Codec ID : XVID Codec ID/Hint : XviD Duration : 1h 49mn Bit rate : 1 625 Kbps Width : 720 pixels Height : 304 pixels Display aspect ratio : 2.35:1 Frame rate : 23.976 fps Resolution : 24 bits Colorimetry : 4:2:0 Scan type : Progressive Bits/(Pixel*Frame) : 0.310 Stream size : 690 MiB (99%) Writing library : XviD 58 Audio ID : 1 Format : AC-3 Format/Info : Audio Coding 3 Codec ID : 2000 Duration : 1h 49mn Bit rate mode : Constant Bit rate : 192 Kbps Channel(s) : 2 channels Channel positions : L R Sampling rate : 48.0 KHz Stream size : 147 MiB (11%) Alignment : Aligned on interleaves Interleave, duration : 64 ms (1.53 video frames) Interleave, preload duration : 192 ms ----------------------------------------- Plot: ---- A pair of underachieving cops are sent back to a local high school to blend in and bring down a synthetic drug ring. -------------------
Les Aventuriers de l'espace - 24 - La mort et la vie.mp4 175.052 MB
Les Aventuriers de l'espace - 4 - Les serpents volants et le bébé monstre.mp4 159.241 MB
Les Aventuriers de l'espace - 17 - Un autre moi et un autre toi.mp4 151.8 MB
Gathering some info...

Register and log in Isohunt and see no captcha anymore!

4000 symbols left
Hash D08169D6AA6BDC2D724F285827C8B503E6CD2A81