Thom Hartmann Program - March 21 2012

Size 68.577 MB   0 seeders     Added 2012-03-22 15:43:13

Stream torrent
Starting‥ You need BitLord! Get it from BitLord.com
To download or stream you need BitLord. Visit them at BitLord.com
IMDb: http://www.imdb.com/title/tt1232829/ ------------------------------------------ 21 Jump Street (2012) DVDScR_XviD.AC3 - ACENX --------------------------------------------- Sample.................: Yes Sample Size............: 8.15 MiB --------------------------------- Details: ------- Video ID : 0 Format : MPEG-4 Visual Format profile : AdvancedSimple@L5 Format settings, BVOP : Yes Format settings, QPel : No Format settings, GMC : No warppoints Format settings, Matrix : Custom Codec ID : XVID Codec ID/Hint : XviD Duration : 1h 49mn Bit rate : 1 625 Kbps Width : 720 pixels Height : 304 pixels Display aspect ratio : 2.35:1 Frame rate : 23.976 fps Resolution : 24 bits Colorimetry : 4:2:0 Scan type : Progressive Bits/(Pixel*Frame) : 0.310 Stream size : 690 MiB (99%) Writing library : XviD 58 Audio ID : 1 Format : AC-3 Format/Info : Audio Coding 3 Codec ID : 2000 Duration : 1h 49mn Bit rate mode : Constant Bit rate : 192 Kbps Channel(s) : 2 channels Channel positions : L R Sampling rate : 48.0 KHz Stream size : 147 MiB (11%) Alignment : Aligned on interleaves Interleave, duration : 64 ms (1.53 video frames) Interleave, preload duration : 192 ms ----------------------------------------- Plot: ---- A pair of underachieving cops are sent back to a local high school to blend in and bring down a synthetic drug ring. ------------------- Screenshots: ----------- -------------------
Thom Hartmann Program - March 21 2012/thp.2012.03.21.a.mp3 24.765 MB
Thom Hartmann Program - March 21 2012/thp.2012.03.21.c.mp3 21.893 MB
Thom Hartmann Program - March 21 2012/thp.2012.03.21.b.mp3 21.892 MB
Gathering some info...

Register and log in Isohunt and see no captcha anymore!

4000 symbols left
Hash b04ce8f2d1c881b4bd8b9c0a5abe8c64986cbda8