Taio Cruz - Troublemaker (h264mp4)

Size 83.136 MB   0 seeders     Added 2012-03-24 02:38:57

Stream torrent
Starting‚Ä• You need BitLord! Get it from 1BitLord.com
To download or stream you need BitLord. Visit them at BitLord.com
General
Format : MPEG-4
Format profile : Base Media
Codec ID : isom
File size : 79.3 MiB
Duration : 3mn 41s
Overall bit rate : 3 003 Kbps
Encoded date : UTC 2012-03-20 04:40:44
Tagged date : UTC 2012-03-20 04:40:44
Video
ID : 1
Format : AVC
Format/Info : Advanced Video Codec
Format profile : High@L3.0
Format settings, CABAC : Yes
Format settings, ReFrames : 2 frames
Format settings, GOP : M=2, N=24
Codec ID : avc1
Codec ID/Info : Advanced Video Coding
Duration : 3mn 41s
Bit rate mode : Variable
Bit rate : 2 913 Kbps
Maximum bit rate : 13.1 Mbps
Width : 720 pixels
Height : 480 pixels
Display aspect ratio : 16:9
Original display aspect ratio : 16:9
Frame rate mode : Constant
Frame rate : 25.000 fps
Standard : NTSC
Color space : YUV
Chroma subsampling : 4:2:0
Bit depth : 8 bits
Scan type : Progressive
Bits/(Pixel*Frame) : 0.337
Stream size : 77.3 MiB (98%)
Audio
ID : 2
Format : AAC
Format/Info : Advanced Audio Codec
Format profile : LC
Codec ID : 40
Duration : 3mn 41s
Bit rate mode : Variable
Bit rate : 66.15 Kbps
Maximum bit rate : 79.8 Kbps
Channel(s) : 2 channels
Channel positions : Front: L R
Sampling rate : 44.1 KHz
Compression mode : Lossy
Stream size : 1.77 MiB (2%)
 
TaioCruz-Troublemaker-musicvideos-hq.net.mp4 83.136 MB
Gathering some info...

Register and log in Isohunt and see no captcha anymore!

4000 symbols left
Hash AFEE351D07436EC62DC416E566AEFDFCA10A3552