imdb
rating

6.6
John Carter

John Carter (2012)

Action, Adventure, Fantasy, Science Fiction

Full description
quality   dvdrip telesync dvd bd fullhd

John Carter (2012) DVDRip XviD.AC3 - ACNEX

Size 100.825 MB   4 seeders     Added 2012-03-24 02:56:45

Stream torrent
Starting‥ You need BitLord! Get it from 1BitLord.com
To download or stream you need BitLord. Visit them at BitLord.com
IMDb: http://www.imdb.com/title/tt0401729/ ------------------------------------------ John Carter (2012) DVDRip_XviD.AC3 - ACNEX ------------------------------------------ Sample........................: Yes Sample Size...................: 10.0 MiB ---------------------------------------- Details: ------- Video ID : 0 Format : MPEG-4 Visual Format profile : AdvancedSimple@L5 Format settings, BVOP : Yes Format settings, QPel : No Format settings, GMC : No warppoints Format settings, Matrix : Custom Codec ID : XVID Codec ID/Hint : XviD Duration : 2h 12mn Bit rate : 1 631 Kbps Width : 720 pixels Height : 304 pixels Display aspect ratio : 2.35:1 Frame rate : 23.976 fps Resolution : 24 bits Colorimetry : 4:2:0 Scan type : Progressive Bits/(Pixel*Frame) : 0.311 Stream size : 691 MiB (99%) Writing library : XviD 58 Audio ID : 1 Format : AC-3 Format/Info : Audio Coding 3 Codec ID : 2000 Duration : 2h 12mn Bit rate mode : Constant Bit rate : 384 Kbps Channel(s) : 6 channels Channel positions : Front: L C R, Surround: L R, LFE Sampling rate : 48.0 KHz Stream size : 293 MiB (19%) Alignment : Aligned on interleaves Interleave, duration : 64 ms (1.54 video frames) Interleave, preload duration : 192 ms ----------------------------------------- Plot: ---- Transplanted to Mars, a Civil War vet discovers a lush planet inhabited by 12-foot tall barbarians. Finding himself a prisoner of these creatures, he escapes, only to encounter a princess who is in desperate need of a savior. ---------------------------- Screenshots: ----------- -------------------
2011 - Death Meditations/01 - Portals.mp3 3.752 MB
2011 - Death Meditations/02 - The Momentum.mp3 11.482 MB
2011 - Death Meditations/03 - Coffin-Shaped Heart.mp3 13.196 MB
Gathering some info...

Register and log in Isohunt and see no captcha anymore!

4000 symbols left
Hash 80C24AB04DE36E9A43EDDF2E80BEA9DF3A71DD95

Related torrents for "John Carter (2012) DVDRip XviD.AC3 - ACNEX"

Torrent search:

dvdrip 2012