imdb
rating

6.9
The Book of Eli

The Book of Eli (2010)

Action, Science Fiction, Thriller

Full description
quality   h264 telesync dvdrip hd cam dvdr bd

The Book of Eli 2010 DVDrip English Klam

Size 1.7 GB   0 seeders     Added 2012-03-24 03:06:19

Stream torrent
Starting‥ You need BitLord! Get it from BitLord.com
10
To download or stream you need BitLord. Visit them at BitLord.com
With: Denzel Washington, Gary Oldman and Mila Kunis\r\n\r\nIn de nabije toekomst is Amerika een kaal en gevaarlijk niemandsland geworden. Gewapend met zijn jachtgeweer, zwaard en instinct heeft Eli deze wereld jarenlang afgezworven, zichzelf verdedigend tegen uiterst gewelddadige bendes op zoek naar overlevingsmiddelen. In Californië geeft de zelfverklaarde dictator Carnegie zijn bende opdracht Eli te overmeesteren. Tijdens dit kat en muis spel ontmoet Eli Carnegie's stiefdochter Solara, die hem vertelt over haar stiefvaders wrede en vernietigende plannen om het gebied te veroveren. Samen vervolgen ze Eli's weg naar San Francisco, waar het einddoel ligt van zijn lange reis: het afleveren van belangrijke informatie die de redding van de gehele mensheid kan betekenen.\r\n\r\nA post-apocalyptic tale, in which a lone man fights his way across America in order to protect a sacred book that holds the secrets to saving humankind\r\n\r\nhttp://www.imdb.com/title/tt1037705\r\n\r\n[COLOR=#DD0000]------------------------ Dutch Friends ------------------------\r\n---------------------------------------------------------------\r\n- Bezoek ook eens mijn vrienden op:  http://www.Film-Test.nl --\r\n----- voor mijn Nederlandse Sync. ondertitels ---- en meer ----\r\n------- http://www.Film-Test.nl ---- voor Films en meer -------\r\n---------------------------------------------------------------[/COLOR]\r\n\r\nGeneral:\r\n\r\nComplete name                    : The Book of Eli\\The Book of Eli.avi\r\nFormat                           : AVI\r\nFormat/Info                      : Audio Video Interleave\r\nFile size                        : 1.58 GiB\r\nDuration                         : 1h 52mn\r\nOverall bit rate                 : 2 008 Kbps\r\n\r\nVideo:\r\n\r\nFormat                           : MPEG-4 Visual\r\nFormat profile                   : Simple@L3\r\nFormat settings, BVOP            : No\r\nFormat settings, QPel            : No\r\nFormat settings, GMC             : No warppoints\r\nFormat settings, Matrix          : Default (H.263)\r\nCodec ID                         : XVID\r\nCodec ID/Hint                    : XviD\r\nDuration                         : 1h 52mn\r\nBit rate                         : 1 613 Kbps\r\nWidth                            : 720 pixels\r\nHeight                           : 304 pixels\r\nDisplay aspect ratio             : 2.35:1\r\nFrame rate                       : 25.000 fps\r\nColor space                      : YUV\r\nChroma subsampling               : 4:2:0\r\nBit depth                        : 8 bits\r\nScan type                        : Progressive\r\nCompression mode                 : Lossy\r\nBits/(Pixel*Frame)               : 0.295\r\nStream size                      : 1.27 GiB (80%)\r\nWriting library                  : XviD 1.1.2 (UTC 2006-11-01)\r\n\r\nAudio:\r\n\r\nFormat                           : AC-3\r\nFormat/Info                      : Audio Coding 3\r\nMode extension                   : CM (complete main)\r\nCodec ID                         : 2000\r\nDuration                         : 1h 52mn\r\nBit rate mode                    : Constant\r\nBit rate                         : 384 Kbps\r\nChannel(s)                       : 6 channels\r\nChannel positions                : Front: L C R, Side: L R, LFE\r\nSampling rate                    : 48.0 KHz\r\nBit depth                        : 16 bits\r\nCompression mode                 : Lossy\r\nStream size                      : 310 MiB (19%)\r\nAlignment                        : Aligned on interleaves\r\nInterleave, duration             : 32 ms (0.80 video frame)\r\nInterleave, preload duration     : 448 ms
Cover/The Book of Eli.jpg 58.343 KB
Cover/www.Film-Test.nl.JPG 34.175 KB
New Dutch Site.txt 117 B
Gathering some info...

Register and log in Isohunt and see no captcha anymore!

4000 symbols left
Hash 9EAE90D869050F0CE234B8AD4A61185BB4DDBA7F

Related torrents for "The Book of Eli 2010 DVDrip English Klam"

Torrent search:

dvdrip english 2010