imdb
rating

6.7
American Reunion

American Reunion (2012)

Comedy

Full description

American Reunion (2012) DVDRip XviD-MAX

Size 1.308 GB   0 seeders     Added 2012-03-24 19:30:00

Stream torrent
Starting‥ You need BitLord! Get it from 1BitLord.com
To download or stream you need BitLord. Visit them at BitLord.com
Screens:

image


American Reunion (2012) DVDRip XviD-MAXSPEED
Format                           : AVI
Format/Info                      : Audio Video Interleave
Format profile                   : OpenDML
File size                        : 1.21 GiB
Duration                         : 2h 16mn
Overall bit rate                 : 1 714 Kbps
Writing application              : VirtualDubMod 1.5.10.2 (build 2542/release)
Writing library                  : VirtualDubMod build 2542/release
Original source form             : MAX TORRENTZ
Copyright                        : SIGISMUNT

Video
ID                               : 0
Format                           : MPEG-4 Visual
Format profile                   : AdvancedSimple@L5
Format settings, BVOP            : Yes
Format settings, QPel            : No
Format settings, GMC             : No warppoints
Format settings, Matrix          : Default (H.263)
Codec ID                         : XVID
Codec ID/Hint                    : XviD
Duration                         : 2h 16mn
Bit rate                         : 1 325 Kbps
Width                            : 640 pixels
Height                           : 272 pixels
Display aspect ratio             : 2.35:1
Frame rate                       : 23.976 fps
Resolution                       : 24 bits
Colorimetry                      : 4:2:0
Scan type                        : Progressive
Bits/(Pixel*Frame)               : 0.318
Stream size                      : 1.01 GiB (87%)
Writing library                  : XviD 61

Audio
ID                               : 1
Format                           : AC-3
Format/Info                      : Audio Coding 3
Codec ID                         : 2000
Duration                         : 2h 16mn
Bit rate mode                    : Constant
Bit rate                         : 384 Kbps
Channel(s)                       : 6 channels
Channel positions                : Front: L C R, Surround: L R, LFE
Sampling rate                    : 48.0 KHz
Stream size                      : 300 MiB (22%)
Alignment                        : Aligned on interleaves
Interleave, duration             : 64 ms (1.54 video frames)
Interleave, preload duration     : 196 ms

Source: DVD (perfect a/v/sync quality,sample Not included)
This torrent is not seedbox supported,please seed it to the MAX
 
NOTE

BE AWARE OF BOGUS SITES , FAKE FILES  AND 
STUPID SPAMMERS DOWNLOAD ALWAYS YOUR MAX DATA FROM OUR SITE 
http://www.torentz.3xforum.rog/topic/4/MAX_TORRENTZ/

Recommended player for all our movies
http://www.videolan.org/vlcHD/

REMEMBER: GOD DEMANDS LOVE,SEEDS,PEERS AND A FAIR TORRENT RATIO

Copyright © WWW.TORENTZ.3XFORUM.RO
American Reunion (2012) DVDRip XviD-MAX/American Reunion (2012) DVDRip XviD-MAXSPEED www.torentz.3xforum.ro.avi 1.308 GB
American Reunion (2012) DVDRip XviD-MAX/American Reunion (2012) DVDRip XviD-MAXSPEED.nfo 2.692 KB
American Reunion (2012) DVDRip XviD-MAX/Torrent downloaded from Demonoid.me.txt 46 B
Gathering some info...

Register and log in Isohunt and see no captcha anymore!

4000 symbols left
Hash aa3164cf3ba2c760cf2ac37ce85843d3aa52937b

Related torrents for "American Reunion (2012) DVDRip XviD-MAX"

Torrent search:

dvdrip 2012