imdb
rating

5.6
X

X (2011)

Action, Thriller, Romance

Full description
quality   telesync dvd dvdrip x264 hd bd

We Bought A Zoo 2011 720p BDRip XviD ac3 (avi) X@720

Size 4.355 GB   1 seeders     Added 2012-03-26 01:30:24

Stream torrent
Starting‥ You need BitLord! Get it from BitLord.com
10
To download or stream you need BitLord. Visit them at BitLord.com
[img]image[/img]

[img]image[/img]

[img]image[/img]

FILM TITLE: [COLOR=#DD0000]We Bought a Zoo (2011)[/COLOR]

Genre:  Comedy | Drama | Family   

Rated PG for language and some thematic elements

Release:   17 May 2012 (Sweden) 

Director: Cameron Crowe

Writer: Aline Brosh McKenna (screenplay), Cameron Crowe (screenplay)

Stars:  Matt Damon, Scarlett Johansson and Thomas Haden Church

Country:  USA

Language:  English

Plot:
Set in Southern California, a father moves his young family to the countryside to renovate and 
re-open a struggling zoo.

IMDB Rating: 7.3/10 from 8,641 users   Metascore: 58/100

[URL=http://http://www.imdb.com/title/tt1389137/]IMDB INFO[/URL]

[URL=http://http://www.youtube.com/watch?v=q10Den4ArBc]YOUTUBE[/URL]

[img]image[/img]

[url=http://www.imagezon3.com/images/Dft94.png][img]image[/img][/url]
[url=http://www.imagezon3.com/images/3EjWM.png][img]image[/img][/url]
[url=http://www.imagezon3.com/images/yLreh.png][img]image[/img][/url]
[url=http://www.imagezon3.com/images/iJdUr.png][img]image[/img][/url]
[url=http://www.imagezon3.com/images/7ekHC.png][img]image[/img][/url]

[img]image[/img]

General
Complete name                            : We Bought A Zoo 2011 720p BDRip XviD ac3 (avi) [X@720].avi
Format                                   : AVI
Format/Info                              : Audio Video Interleave
Format profile                           : OpenDML
File size                                : 4.02 GiB
Duration                                 : 2h 3mn
Overall bit rate                         : 4646 Kbps
Writing library                          : VirtualDub build 32842/release

Video
ID                                       : 0
Format                                   : MPEG-4 Visual
Format profile                           : Simple@L5
Format settings, BVOP                    : No
Format settings, QPel                    : No
Format settings, GMC                     : No warppoints
Format settings, Matrix                  : Default (H.263)
Codec ID                                 : XVID
Codec ID/Hint                            : XviD
Duration                                 : 2h 3mn
Bit rate                                 : 3997 Kbps
Width                                    : 1280 pixels
Height                                   : 688 pixels
Display aspect ratio                     : 1.860
Frame rate                               : 23.976 fps
Color space                              : YUV
Chroma subsampling                       : 4:2:0
Bit depth                                : 8 bits
Scan type                                : Progressive
Compression mode                         : Lossy
Bits/(Pixel*Frame)                       : 0.189
Stream size                              : 3.46 GiB (86%)
Writing library                          : XviD 64

Audio
ID                                       : 1
Format                                   : AC-3
Format/Info                              : Audio Coding 3
Mode extension                           : CM (complete main)
Codec ID                                 : 2000
Duration                                 : 2h 3mn
Bit rate mode                            : Constant
Bit rate                                 : 640 Kbps
Channel(s)                               : 6 channels
Channel positions                        : Front: L C R, Side: L R, LFE
Sampling rate                            : 48.0 KHz
Bit depth                                : 16 bits
Compression mode                         : Lossy
Stream size                              : 567 MiB (14%)
Alignment                                : Aligned on interleaves
Interleave, duration                     : 42 ms (1.00 video frame)
Interleave, preload duration             : 512 ms


Video Source: We Bought A Zoo 2011 BluRay 1080p AVC DTS-HD MA5.1-CHDBits (45.28GB)

Thanks: (chdbits.org)


I provide a small sample, so please download this to check your 
compatibility first if you are unsure.

I am now part of the new TorrentMafia release group, its a private site but I shall still be 
releasing p2p, I may have moved to a new home but my quality will never reduce.

I am providing tutorials here :- tutorials4all.freeforums.org

I allow transfer of my encodes to any site, just give me credit, as I give credit to my sources.  


Hash: 785A03C7B048950A376FF8DAB5ED54E42A17541E

[CODE]Trackers:
http://inferno.demonoid.me:3414/announce
http://tracker.torrent.to:2710/announce
udp://tracker.1337x.org:80/announce
udp://tracker.openbittorrent.com:80/announce[/CODE]

[url=http://www.imagezon3.com/images/ER0t4.png][img]image[/img][/url]
000016
(SAMPLE) We Bought A Zoo 2011.avi 37.411 MB
Torrent downloaded from Demonoid.me.txt 46 B
We Bought A Zoo 2011 720p BDRip XviD ac3 (avi) [X@720].txt 4.781 KB
Gathering some info...

Register and log in Isohunt and see no captcha anymore!

4000 symbols left
Hash 785A03C7B048950A376FF8DAB5ED54E42A17541E

Related torrents for "We Bought A Zoo 2011 720p BDRip XviD ac3 (avi) X@720"

Torrent search:

hd bd 2011