Criminal (1995) DVDRip x264 AC3

Size 1.562 GB   4 seeders     Added 2012-03-27 03:02:35

Stream torrent
Starting‥ You need BitLord! Get it from 1BitLord.com
10
To download or stream you need BitLord. Visit them at BitLord.com
[B]Criminal (1995) DVDRip x264 AC3[/B]\r\n\r\n[img]image[/img]\r\n\r\n\r\n[B]INFO[/B]\r\n\r\n[CODE]Format                                   : Matroska\r\nFormat version                           : Version 2\r\nFile size                                : 1.45 GiB\r\nDuration                                 : 2h 4mn\r\nOverall bit rate mode                    : Variable\r\nOverall bit rate                         : 1 670 Kbps\r\nEncoded date                             : UTC 2012-02-17 02:06:59\r\nWriting application                      : mkvmerge v5.2.1 ('A Far Off Place') built on Jan  2 2012 23:21:10\r\nWriting library                          : libebml v1.2.3 + libmatroska v1.3.0\r\n\r\nVideo\r\nID                                       : 1\r\nFormat                                   : AVC\r\nFormat/Info                              : Advanced Video Codec\r\nFormat profile                           : High@L4.1\r\nFormat settings, CABAC                   : Yes\r\nFormat settings, ReFrames                : 3 frames\r\nCodec ID                                 : V_MPEG4/ISO/AVC\r\nDuration                                 : 2h 4mn\r\nBit rate mode                            : Variable\r\nBit rate                                 : 1 412 Kbps\r\nMaximum bit rate                         : 40.0 Mbps\r\nWidth                                    : 640 pixels\r\nHeight                                   : 304 pixels\r\nDisplay aspect ratio                     : 2.2:1\r\nFrame rate                               : 29.970 fps\r\nColor space                              : YUV\r\nChroma subsampling                       : 4:2:0\r\nBit depth                                : 8 bits\r\nScan type                                : Progressive\r\nBits/(Pixel*Frame)                       : 0.242\r\nStream size                              : 1.20 GiB (83%)\r\nWriting library                          : x264 core 120 r2164 da19765\r\nEncoding settings                        : cabac=1 / ref=3 / deblock=1:-1:-1 / analyse=0x3:0x113 / me=hex / subme=7 / psy=1 / psy_rd=1.00:0.15 / mixed_ref=1 / me_range=16 / chroma_me=1 / trellis=1 / 8x8dct=1 / cqm=0 / deadzone=21,11 / fast_pskip=1 / chroma_qp_offset=-3 / threads=3 / sliced_threads=0 / slices=4 / nr=0 / decimate=1 / interlaced=0 / bluray_compat=1 / constrained_intra=0 / bframes=3 / b_pyramid=1 / b_adapt=1 / b_bias=0 / direct=1 / weightb=1 / open_gop=1 / weightp=1 / keyint=30 / keyint_min=1 / scenecut=40 / intra_refresh=0 / rc_lookahead=30 / rc=2pass / mbtree=1 / bitrate=1412 / ratetol=1.0 / qcomp=0.60 / qpmin=10 / qpmax=51 / qpstep=4 / cplxblur=20.0 / qblur=0.5 / vbv_maxrate=40000 / vbv_bufsize=30000 / nal_hrd=vbr / ip_ratio=1.40 / aq=1:1.00\r\nLanguage                                 : English\r\nDefault                                  : Yes\r\nForced                                   : No\r\n\r\nAudio\r\nID                                       : 2\r\nFormat                                   : AC-3\r\nFormat/Info                              : Audio Coding 3\r\nMode extension                           : CM (complete main)\r\nCodec ID                                 : A_AC3\r\nDuration                                 : 2h 4mn\r\nBit rate mode                            : Constant\r\nBit rate                                 : 256 Kbps\r\nChannel(s)                               : 6 channels\r\nChannel positions                        : Front: L C R, Side: L R, LFE\r\nSampling rate                            : 48.0 KHz\r\nBit depth                                : 16 bits\r\nCompression mode                         : Lossy\r\nStream size                              : 228 MiB (15%)\r\nDefault                                  : Yes\r\nForced                                   : No[/CODE]\r\n\r\n\r\n[B]SCREEN SHOTS[/B]\r\n\r\n[img]image[/img]\r\n\r\n[img]image[/img]\r\n\r\n[img]image[/img]\r\n\r\n[img]image[/img]\r\n\r\n[img]image[/img]\r\n\r\n[img]image[/img]\r\n\r\n[B]SAMPLE[/B] \r\n[CODE]http://www.sendspace.com/file/jgyo6j[/CODE]\r\n\r\n*** PLEASE SEED AFTER DOWNLOAD ***\r\n** ENJOY THE MOVIE **
Criminal (1995) DVDRip x264 AC3 - 6.mkv 1.562 GB
Torrent Tracked By DesiDhamal.com.txt 77 B
Gathering some info...

Register and log in Isohunt and see no captcha anymore!

4000 symbols left
Hash 48D862694DD06857D29C6D06F9BC27A4EFB1D056

Related torrents for "Criminal (1995) DVDRip x264 AC3"

Torrent search:

dvdrip 1995 x264