imdb
rating

5.7
London, Paris, New York

London, Paris, New York (2012)

Romance

Full description

London Paris New York 2012 LIMITED BRRIP 720p AUDIO HINDI-5 1 Ch ORIGINAL (BY-GPSOFT)

Size 738.209 MB   0 seeders     Added 2012-03-29 02:49:24

Stream torrent
Starting‥ You need BitLord! Get it from 1BitLord.com
To download or stream you need BitLord. Visit them at BitLord.com
London Paris New York (2012)\r\nPG_13 100 min  -  Romance  -   \r\n5.4\r\nYour rating:\r\n    -/10  \r\nRatings: 5.4/10 from 488 users  \r\nReviews: 17 user | 15 critic\r\n\r\nNikhil and Lalitha are two completely different individuals who are drawn to each other in spite of their differences -- or perhaps because of it. Follow their journey as they meet in London, Paris and New York for a night in each city.\r\n\r\nDirector:\r\nAnu Menon\r\nWriters:\r\nAnu Menon (story), Anu Menon (dialogue), and 1 more credit »\r\nStars:\r\nAli Zafar, Aditi Rao Hydari and Chris Cowlin\r\n\r\nVIDEO :- HD-1080p FROM MY OWN BLU-RAY\r\nAUDIO :- HINDI 5.1CH ORIGINAL FROM MY SONY-DVD\r\n\r\nGeneral\r\n************\r\nComplete name : London Paris New York 2012 720P BRRIP AUD-HINDI DD-5.1 (ORIGINAL BY GPSOFT)\r\nFormat : Matroska\r\nFormat version : Version 2\r\nDuration : 1h 59mn\r\nOverall bit rate : 2 632 Kbps\r\nMovie name : London Paris New York 2012 720P BRRIP AUD-HINDI DD-5.1 (ORIGINAL BY GPSOFT)\r\nWriting application : mkvmerge v5.1.0 ('And so it goes') built on March 27 2012 23:58:28\r\nWriting library : libebml v1.2.3 + libmatroska v1.3.0\r\n\r\nVideo\r\n********\r\nID : 1\r\nFormat : AVC\r\nFormat/Info : Advanced Video Codec\r\nFormat profile : Main@L3.1\r\nFormat settings, CABAC : Yes\r\nFormat settings, ReFrames : 1 frame\r\nMuxing mode : Header stripping\r\nCodec ID : V_MPEG4/ISO/AVC\r\nDuration : (1h 59mn 23se)\r\nBit rate : 2 119 Kbps\r\nWidth : 1 280 pixels\r\nHeight : 688 pixels\r\nDisplay aspect ratio : 1.860\r\nFrame rate : 25.000 fps\r\nOriginal frame rate : 23.976 fps\r\nColor space : YUV\r\nChroma subsampling : 4:2:0\r\nBit depth : 8 bits\r\nScan type : Progressive\r\nBits/(Pixel*Frame) : 0.096\r\nStream size : 1.78 GiB (81%)\r\nTitle : London Paris New York 2012 720P BRRIP AUD-HINDI DD-5.1 (ORIGINAL BY GPSOFT)\r\n\r\nhttp://www.youtube.com/watch?v=3zic5qpxl64\r\n\r\nAudio\r\n********\r\nID : 2\r\nFormat : AC-3\r\nFormat/Info : Audio Coding 3\r\nMode extension : CM (complete main)\r\nMuxing mode : Header stripping\r\nCodec ID : A_AC3\r\nDuration : (1h 59mn 23se)\r\nBit rate mode : Constant\r\nBit rate : 448 Kbps\r\nChannel(s) : 6 channels\r\nChannel positions : Front: L C R, Side: L R, LFE\r\nSampling rate : 48.0 KHz\r\nBit depth : 16 bits\r\nCompression mode : Lossy\r\nDelay relative to video : 2s 500ms\r\nStream size : 383 MiB (17%)\r\nTitle : HINDI DD-5.1 (ORIGINAL BY GPSOFT)\r\nLanguage : Hindi\r\nDefault : Yes\r\nForced : No\r\n\r\nimage
2012 LIMITED BRRIP 720p AUDIO HINDI-5.1 Ch ORIGINAL (BY-GPSOFT).nfo 1.452 KB
London Paris New York 2012 LIMITED BRRIP 720p AUDIO HINDI-5.1 Ch ORIGINAL (BY-GPSOFT).avi 738.206 MB
Torrent downloaded from Demonoid.me.txt 46 B
Gathering some info...

Register and log in Isohunt and see no captcha anymore!

4000 symbols left
Hash CF1D6D3E129334F34C71F24E5FDC3E32834C0A35

Related torrents for "London Paris New York 2012 LIMITED BRRIP 720p AUDIO HINDI-5 1 Ch ORIGINAL (BY-GPSOFT)"

Torrent search:

hd hindi 2012 bd