imdb
rating

 
Intruder

Intruder (2016)

Full description

Intruders 2012 LIMITED BRRIP 720p AUDIO HINDI-5 1 Ch ORIGINAL (BY-GPSOFT)

Size 738.209 MB   0 seeders     Added 2012-03-29 02:50:19

Stream torrent
Starting‥ You need BitLord! Get it from BitLord.com
To download or stream you need BitLord. Visit them at BitLord.com
Intruders 	\r\nTop 5000\r\nIntruders (2011)\r\nR 100 min  -  Horror | Thriller  - \r\n5.8\r\nYour rating:\r\n    -/10  \r\nRatings: 5.8/10 from 852 users  \r\nReviews: 5 user | 39 critic\r\n\r\nTwo children living in different countries are visited nightly by a faceless being who wants to take possession of them.\r\n\r\nDirector:\r\nJuan Carlos Fresnadillo\r\nWriters:\r\nNicolás Casariego (screenplay), Jaime Marques (screenplay)\r\nStars:\r\nClive Owen, Carice van Houten and Izán Corchero \r\n\r\nVIDEO :- HD-1080p FROM MY OWN BLU-RAY\r\nAUDIO :- HINDI 5.1CH ORIGINAL FROM MY SONY-DVD\r\n\r\nGeneral\r\n************\r\nComplete name : Intruders 2012 720P BRRIP AUD-HINDI DD-5.1 (ORIGINAL BY GPSOFT)\r\nFormat : Matroska\r\nFormat version : Version 2\r\nDuration : 1h 59mn\r\nOverall bit rate : 2 632 Kbps\r\nMovie name : Intruders 2012 720P BRRIP AUD-HINDI DD-5.1 (ORIGINAL BY GPSOFT)\r\nWriting application : mkvmerge v5.1.0 ('And so it goes') built on March 27 2012 23:58:28\r\nWriting library : libebml v1.2.3 + libmatroska v1.3.0\r\n\r\nVideo\r\n********\r\nID : 1\r\nFormat : AVC\r\nFormat/Info : Advanced Video Codec\r\nFormat profile : Main@L3.1\r\nFormat settings, CABAC : Yes\r\nFormat settings, ReFrames : 1 frame\r\nMuxing mode : Header stripping\r\nCodec ID : V_MPEG4/ISO/AVC\r\nDuration : (1h 59mn 23se)\r\nBit rate : 2 119 Kbps\r\nWidth : 1 280 pixels\r\nHeight : 688 pixels\r\nDisplay aspect ratio : 1.860\r\nFrame rate : 25.000 fps\r\nOriginal frame rate : 23.976 fps\r\nColor space : YUV\r\nChroma subsampling : 4:2:0\r\nBit depth : 8 bits\r\nScan type : Progressive\r\nBits/(Pixel*Frame) : 0.096\r\nStream size : 1.78 GiB (81%)\r\nTitle : Intruders 2012 720P BRRIP AUD-HINDI DD-5.1 (ORIGINAL BY GPSOFT)\r\n\r\nhttp://www.youtube.com/watch?v=45a8VVti-rY\r\n\r\nAudio\r\n********\r\nID : 2\r\nFormat : AC-3\r\nFormat/Info : Audio Coding 3\r\nMode extension : CM (complete main)\r\nMuxing mode : Header stripping\r\nCodec ID : A_AC3\r\nDuration : (1h 59mn 23se)\r\nBit rate mode : Constant\r\nBit rate : 448 Kbps\r\nChannel(s) : 6 channels\r\nChannel positions : Front: L C R, Side: L R, LFE\r\nSampling rate : 48.0 KHz\r\nBit depth : 16 bits\r\nCompression mode : Lossy\r\nDelay relative to video : 2s 500ms\r\nStream size : 383 MiB (17%)\r\nTitle : HINDI DD-5.1 (ORIGINAL BY GPSOFT)\r\nLanguage : Hindi\r\nDefault : Yes\r\nForced : No\r\n\r\nimage
2012 LIMITED BRRIP 720p AUDIO HINDI-5.1 Ch ORIGINAL (BY-GPSOFT).nfo 1.452 KB
Intruders 2012 LIMITED BRRIP 720p AUDIO HINDI-5.1 Ch ORIGINAL (BY-GPSOFT).avi 738.206 MB
Torrent downloaded from Demonoid.me.txt 46 B
Gathering some info...

Register and log in Isohunt and see no captcha anymore!

4000 symbols left
Hash 9F3836D3B9F418537F8D9E6708692B890ADB8D2D

Related torrents for "Intruders 2012 LIMITED BRRIP 720p AUDIO HINDI-5 1 Ch ORIGINAL (BY-GPSOFT)"

Torrent search:

hd hindi 2012 bd