imdb
rating

6.7
Project X

Project X (2012)

Comedy, Crime

Full description

Project X 2012 LIMITED BRRIP 720p AUDIO HINDI-5 1 Ch ORIGINAL (BY-GPSOFT)

Size 738.209 MB   0 seeders     Added 2012-03-29 02:53:50

Stream torrent
Starting‥ You need BitLord! Get it from BitLord.com
To download or stream you need BitLord. Visit them at BitLord.com
Project X (2012)\r\nR 88 min  -  Comedy  -  \r\n6.3\r\nYour rating:\r\n    -/10  \r\nRatings: 6.3/10 from 7,056 users   Metascore: 48/100 \r\nReviews: 89 user | 104 critic | 25 from Metacritic.com\r\n\r\n3 high school seniors throw a birthday party to make a name for themselves. As the night progresses, things spiral out of control as word of the party spreads.\r\n\r\nDirector:\r\nNima Nourizadeh\r\nWriters:\r\nMatt Drake (screenplay), Michael Bacall (screenplay), and 1 more credit »\r\nStars:\r\nThomas Mann, Oliver Cooper and Jonathan Daniel Brown \r\n\r\nVIDEO :- HD-1080p FROM MY OWN BLU-RAY\r\nAUDIO :- HINDI 5.1CH ORIGINAL FROM MY SONY-DVD\r\n\r\nGeneral\r\n************\r\nComplete name : Project X 2012 720P BRRIP AUD-HINDI DD-5.1 (ORIGINAL BY GPSOFT)\r\nFormat : Matroska\r\nFormat version : Version 2\r\nDuration : 1h 59mn\r\nOverall bit rate : 2 632 Kbps\r\nMovie name : Project X 2012 720P BRRIP AUD-HINDI DD-5.1 (ORIGINAL BY GPSOFT)\r\nWriting application : mkvmerge v5.1.0 ('And so it goes') built on March 27 2012 23:58:28\r\nWriting library : libebml v1.2.3 + libmatroska v1.3.0\r\n\r\nVideo\r\n********\r\nID : 1\r\nFormat : AVC\r\nFormat/Info : Advanced Video Codec\r\nFormat profile : Main@L3.1\r\nFormat settings, CABAC : Yes\r\nFormat settings, ReFrames : 1 frame\r\nMuxing mode : Header stripping\r\nCodec ID : V_MPEG4/ISO/AVC\r\nDuration : (1h 59mn 23se)\r\nBit rate : 2 119 Kbps\r\nWidth : 1 280 pixels\r\nHeight : 688 pixels\r\nDisplay aspect ratio : 1.860\r\nFrame rate : 25.000 fps\r\nOriginal frame rate : 23.976 fps\r\nColor space : YUV\r\nChroma subsampling : 4:2:0\r\nBit depth : 8 bits\r\nScan type : Progressive\r\nBits/(Pixel*Frame) : 0.096\r\nStream size : 1.78 GiB (81%)\r\nTitle : Project X 2012 720P BRRIP AUD-HINDI DD-5.1 (ORIGINAL BY GPSOFT)\r\n\r\nhttp://www.youtube.com/watch?v=1Rl1TJG17Wk\r\n\r\nAudio\r\n********\r\nID : 2\r\nFormat : AC-3\r\nFormat/Info : Audio Coding 3\r\nMode extension : CM (complete main)\r\nMuxing mode : Header stripping\r\nCodec ID : A_AC3\r\nDuration : (1h 59mn 23se)\r\nBit rate mode : Constant\r\nBit rate : 448 Kbps\r\nChannel(s) : 6 channels\r\nChannel positions : Front: L C R, Side: L R, LFE\r\nSampling rate : 48.0 KHz\r\nBit depth : 16 bits\r\nCompression mode : Lossy\r\nDelay relative to video : 2s 500ms\r\nStream size : 383 MiB (17%)\r\nTitle : HINDI DD-5.1 (ORIGINAL BY GPSOFT)\r\nLanguage : Hindi\r\nDefault : Yes\r\nForced : No\r\nimage
2012 LIMITED BRRIP 720p AUDIO HINDI-5.1 Ch ORIGINAL (BY-GPSOFT).nfo 1.452 KB
Project X 2012 LIMITED BRRIP 720p AUDIO HINDI-5.1 Ch ORIGINAL (BY-GPSOFT).avi 738.206 MB
Torrent downloaded from Demonoid.me.txt 46 B
Gathering some info...

Register and log in Isohunt and see no captcha anymore!

4000 symbols left
Hash BA88809EB25122A37CE36B8B2458864A6DC84D64

Related torrents for "Project X 2012 LIMITED BRRIP 720p AUDIO HINDI-5 1 Ch ORIGINAL (BY-GPSOFT)"

Torrent search:

hd hindi 2012 bd