imdb
rating

6.9
Extremely Loud & Incredibly Close

Extremely Loud & Incredibly Close (2011)

Drama

Full description

Extremely Loud And Incredibly Close 2011 720p BDRip XviD ac3 (av

Size 4.539 GB   0 seeders     Added 2012-03-29 03:01:24

Stream torrent
Starting‥ You need BitLord! Get it from 1BitLord.com
To download or stream you need BitLord. Visit them at BitLord.com
[img]image[/img]

[IMG]image[/IMG]

[IMG]image[/IMG]

FILM TITLE:  [COLOR=#DD0000]Extremely Loud & Incredibly Close (2011)[/COLOR]

Genre:   Adventure | Drama | Mystery   

Rated PG-13 for emotional thematic material, some disturbing images, and language

Release: 17 February 2012 (Sweden)

Director: Stephen Daldry

Writer: Eric Roth (screenplay), Jonathan Safran Foer (novel)

Stars:  Thomas Horn, Tom Hanks and Sandra Bullock

Country:  USA

Language:  English

Plot:
A nine-year-old amateur inventor, Francophile, and pacifist searches New York City 
for the lock that matches a mysterious key left behind by his father, who died in the 
World Trade Center on September 11, 2001.

IMDB Rating: 6.7/10 from 15,827 users   Metascore: 46/100 

[URL=http://http://www.imdb.com/title/tt0477302/]IMDB INFO[/URL]

[URL=http://http://www.youtube.com/watch?v=Z_quK9SEGYE]YOUTUBE[/URL]

[IMG]image[/IMG]

[IMG]image[/IMG]
[IMG]image[/IMG]
[IMG]image[/IMG]
[IMG]image[/IMG]
[IMG]image[/IMG]

[IMG]image[/IMG]

General
Complete name                            : Extremely Loud And Incredibly Close 2011 720p BDRip XviD ac3 (avi) [greyshadow]-=-{{T.M.R.G}}.avi
Format                                   : AVI
Format/Info                              : Audio Video Interleave
Format profile                           : OpenDML
File size                                : 4.19 GiB
Duration                                 : 2h 9mn
Overall bit rate                         : 4638 Kbps
Writing library                          : VirtualDub build 32842/release

Video
ID                                       : 0
Format                                   : MPEG-4 Visual
Format profile                           : Simple@L5
Format settings, BVOP                    : No
Format settings, QPel                    : No
Format settings, GMC                     : No warppoints
Format settings, Matrix                  : Default (H.263)
Codec ID                                 : XVID
Codec ID/Hint                            : XviD
Duration                                 : 2h 9mn
Bit rate                                 : 3989 Kbps
Width                                    : 1280 pixels
Height                                   : 528 pixels
Display aspect ratio                     : 2.40:1
Frame rate                               : 23.976 fps
Color space                              : YUV
Chroma subsampling                       : 4:2:0
Bit depth                                : 8 bits
Scan type                                : Progressive
Compression mode                         : Lossy
Bits/(Pixel*Frame)                       : 0.246
Stream size                              : 3.61 GiB (86%)
Writing library                          : XviD 64

Audio
ID                                       : 1
Format                                   : AC-3
Format/Info                              : Audio Coding 3
Mode extension                           : CM (complete main)
Codec ID                                 : 2000
Duration                                 : 2h 9mn
Bit rate mode                            : Constant
Bit rate                                 : 640 Kbps
Channel(s)                               : 6 channels
Channel positions                        : Front: L C R, Side: L R, LFE
Sampling rate                            : 48.0 KHz
Bit depth                                : 16 bits
Compression mode                         : Lossy
Stream size                              : 593 MiB (14%)
Alignment                                : Aligned on interleaves
Interleave, duration                     : 42 ms (1.00 video frame)
Interleave, preload duration             : 512 ms

[IMG]image[/IMG]


Extremely.Loud.and.Incredibly.Close.2011.BluRay.1080p.AVC.DTS-HD.MA5.1-CHDBits (34.5GB)

Thanks: chdbits.org


I provide a small sample, so please download this to check your 
compatibility first if you are unsure.

We are the new TorrentMafia release group, watch out for our encodes, they will
be everywhere, come and be a member of the Mafiose http://torrentmafia.in/

We allow transfer of our encodes to any site, dont change the description or title, 
or remove any files.  


Hash: 6F85AF46D340B403703515451DD4698F6A40443C

[CODE]Trackers:
http://fr33dom.h33t.com:3310/announce
http://tracker.torrent.to:2710/announce
udp://tracker.1337x.org:80/announce
udp://tracker.openbittorrent.com:80/announce[/CODE]

[img]image[/img]
Extremely Loud And Incredibly Close 2011 720p BDRip XviD ac3 (avi) [greyshadow]-=-{{T.M.R.G}}/(SAMPLE) Extremely Loud And Incredibly Close 2011.avi 35.023 MB
Extremely Loud And Incredibly Close 2011 720p BDRip XviD ac3 (avi) [greyshadow]-=-{{T.M.R.G}}/Extremely Loud And Incredibly Close 2011 720p BDRip XviD ac3 (avi) [greyshadow]-=-{{T.M.R.G}}.txt 4.829 KB
Extremely Loud And Incredibly Close 2011 720p BDRip XviD ac3 (avi) [greyshadow]-=-{{T.M.R.G}}/Extremely Loud And Incredibly Close 2011.avi 4.504 GB
Gathering some info...

Register and log in Isohunt and see no captcha anymore!

4000 symbols left
Hash 6f85af46d340b403703515451dd4698f6a40443c

Related torrents for "Extremely Loud And Incredibly Close 2011 720p BDRip XviD ac3 (av"

Torrent search:

hd bd 2011