21 Jump Street (2012) PPVRip IFLIX

Size 828.812 MB   0 seeders     Added 2012-03-29 10:01:03

To download or stream you need BitLord. Visit them at BitLord.com
21 Jump Street (2012) PPVRip IFLIX image 21jumpstreetb.th.jpg Image Hosted by ImageShack.us
Shot at 2012-03-24 Plot: 21 Jump Street (2012) In high school, Schmidt (Jonah Hill) was a dork and Jenko (Channing Tatum) was the popular jock. After graduation, both of them joined the police force and ended up as partners riding bicycles in the city park. Since they are young and look like high school students, they are assigned to an undercover unit to infiltrate a drug ring that is supplying high school students synthetic drugs. Directors: Phil Lord, Chris Miller Writers: Michael Bacall (screenplay), Michael Bacall (story), and more. Stars: Jonah Hill, Channing Tatum and Ice Cube Genres: Action | Comedy Runtime: 109 min File Size : 790 MB Format : AVI Format/Info : Audio Video Interleave Format profile : OpenDML Overall bit rate : 1 799 Kbps Writing application : VirtualDubMod 1.5.10.2 (build 2542/release) Writing library : VirtualDubMod build 2542/release Copyright : 3LTON Video ID : 0 Format : MPEG-4 Visual Format profile : AdvancedSimple@L5 Format settings, BVOP : Yes Format settings, QPel : No Format settings, GMC : No warppoints Format settings, Matrix : Custom Codec ID : XVID Codec ID/Hint : XviD Bit rate : 1 603 Kbps Width : 720 pixels Height : 304 pixels Display aspect ratio : 2.35:1 Frame rate : 23.976 fps Resolution : 24 bits Colorimetry : 4:2:0 Scan type : Progressive Bits/(Pixel*Frame) : 0.305 Stream size : 1.26 GiB (89%) Writing library : XviD 58 Audio ID : 1 Format : MPEG Audio Format version : Version 1 Format profile : Layer 3 Codec ID : 50 Codec ID/Hint : MP1 Bit rate mode : Constant Bit rate : 192 Kbps Channel(s) : 2 channels Sampling rate : 48.0 KHz Resolution : 16 bits Stream size : 155 MiB (11%) Alignment : Aligned on interleaves Interleave, duration : 493 ms (11.82 video frames) Interleave, preload duration : 216 ms NOTE: Recommended player for all our movies http://www.videolan.org/vlc/ REMEMBER: GOD DEMANDS LOVE,SEEDS,PEERS AND A FAIR TORRENT RATIO
21 Jump Street (2012) PPVRip IFLIX/21 Jump Street (2012) PPVRip IFLIX.avi 827.966 MB
21 Jump Street (2012) PPVRip IFLIX/Screencaps.jpg 757.118 KB
21 Jump Street (2012) PPVRip IFLIX/Subs ENG.srt 82.896 KB
Gathering some info...

Register and log in Isohunt and see no captcha anymore!

4000 symbols left
Hash b492cd3f403160875361d793b64b16fd00203b8f

Related torrents for "21 Jump Street (2012) PPVRip IFLIX"

Torrent search:

2012