October Baby (2012) BRRip XviD-3LT0N

Size 821.349 MB   0 seeders     Added 2012-03-29 10:21:36

Stream torrent
Starting‥ You need BitLord! Get it from 1BitLord.com
To download or stream you need BitLord. Visit them at BitLord.com
October Baby (2012) BRRip XviD-3LT0N image octoberbaby.th.jpg Image Hosted by ImageShack.us
Shot at 2012-03-24 Plot: October Baby As the curtain rises, Hannah hesitantly steps onto the stage for her theatrical debut in college. Yet before she can utter her first lines, Hannah-unscripted-collapses in front of the stunned audience. After countless medical tests, all signs point to one underlying factor: Hannah's difficult birth. This revelation is nothing compared to what she then learns from her parents: she was actually adopted ... after a failed abortion attempt. Bewildered, angered, and confused, Hannah turns for support to Jason, her oldest friend. Encouraged by his adventurous spirit, Hannah joins his group of friends on a Spring Break road trip, embarking on a journey to discover her hidden past ... and find hope for her unknown future. In the midst of her incredible journey, Hannah learns that every life is beautiful. Directors: Andrew Erwin, Jon Erwin Writers: Cecil Stokes (story), Jon Erwin (story), and 3 more credits » Stars: Rachel Hendrix, Jason Burkey and John Schneider Genres: Drama Runtime: 107 min File Size: 783 MB Format : AVI Format/Info : Audio Video Interleave Format profile : OpenDML Overall bit rate : 1 799 Kbps Writing application : VirtualDubMod 1.5.10.2 (build 2542/release) Writing library : VirtualDubMod build 2542/release Copyright : 3LTON Video ID : 0 Format : MPEG-4 Visual Format profile : AdvancedSimple@L5 Format settings, BVOP : Yes Format settings, QPel : No Format settings, GMC : No warppoints Format settings, Matrix : Custom Codec ID : XVID Codec ID/Hint : XviD Bit rate : 1 603 Kbps Width : 720 pixels Height : 304 pixels Display aspect ratio : 2.35:1 Frame rate : 23.976 fps Resolution : 24 bits Colorimetry : 4:2:0 Scan type : Progressive Bits/(Pixel*Frame) : 0.305 Stream size : 1.26 GiB (89%) Writing library : XviD 58 Audio ID : 1 Format : MPEG Audio Format version : Version 1 Format profile : Layer 3 Codec ID : 50 Codec ID/Hint : MP1 Bit rate mode : Constant Bit rate : 192 Kbps Channel(s) : 2 channels Sampling rate : 48.0 KHz Resolution : 16 bits Stream size : 155 MiB (11%) Alignment : Aligned on interleaves Interleave, duration : 493 ms (11.82 video frames) Interleave, preload duration : 216 ms NOTE: Recommended player for all our movies http://www.videolan.org/vlc/ REMEMBER: GOD DEMANDS LOVE,SEEDS,PEERS AND A FAIR TORRENT RATIO
October Baby (2012) BRRip XviD-3LT0N/October Baby (2012) BRRip XviD-3LT0N.avi 810.626 MB
October Baby (2012) BRRip XviD-3LT0N/october baby sample.avi 10.354 MB
October Baby (2012) BRRip XviD-3LT0N/Screencaps.jpg 280.037 KB
Gathering some info...

Register and log in Isohunt and see no captcha anymore!

4000 symbols left
Hash daf5d01711fc2c278e3af466daec487f298009a9