imdb
rating

7.3
The Hunger Games

The Hunger Games (2012)

Adventure, Fantasy, Science Fiction

Full description

The Hunger Games (2012) BRRip XviD-3LT0N

Size 792.945 MB   0 seeders     Added 2012-03-29 10:36:08

Stream torrent
Starting‥ You need BitLord! Get it from 1BitLord.com
10
To download or stream you need BitLord. Visit them at BitLord.com
The Hunger Games (2012) BRRip XviD-3LT0N image thehungergames.th.jpg Image Hosted by ImageShack.us
Shot at 2012-03-24 Plot: The Hunger Games In a not-too-distant future, North America has collapsed, weakened by drought, fire, famine, and war to be replaced by Panem, a country divided into the Capitol and 12 districts. Each year two young representatives from each district are selected by lottery to participate in The Hunger Games. Part entertainment, part brutal intimidation of the subjugated districts, the televised games are broadcast throughout Panem. The 24 participants are forced to eliminate their competitors, literally, with all citizens required to watch. When 16-year-old Katniss' young sister, Prim, is selected as the mining district's female representative, Katniss volunteers to take her place. She and her male counterpart Peeta, will be pitted against bigger, stronger representatives who have trained for this their whole lives. Director: Gary Ross Writers: Gary Ross (screenplay), Suzanne Collins (screenplay), and more. Stars: Jennifer Lawrence, Josh Hutcherson and Liam Hemsworth Genres: Action | Drama | Sci-Fi | Thriller Runtime: 142 min File Size: 756 MB Format : AVI Format/Info : Audio Video Interleave Format profile : OpenDML Overall bit rate : 1 799 Kbps Writing application : VirtualDubMod 1.5.10.2 (build 2542/release) Writing library : VirtualDubMod build 2542/release Copyright : 3LTON Video ID : 0 Format : MPEG-4 Visual Format profile : AdvancedSimple@L5 Format settings, BVOP : Yes Format settings, QPel : No Format settings, GMC : No warppoints Format settings, Matrix : Custom Codec ID : XVID Codec ID/Hint : XviD Bit rate : 1 603 Kbps Width : 720 pixels Height : 304 pixels Display aspect ratio : 2.35:1 Frame rate : 23.976 fps Resolution : 24 bits Colorimetry : 4:2:0 Scan type : Progressive Bits/(Pixel*Frame) : 0.305 Stream size : 1.26 GiB (89%) Writing library : XviD 58 Audio ID : 1 Format : MPEG Audio Format version : Version 1 Format profile : Layer 3 Codec ID : 50 Codec ID/Hint : MP1 Bit rate mode : Constant Bit rate : 192 Kbps Channel(s) : 2 channels Sampling rate : 48.0 KHz Resolution : 16 bits Stream size : 155 MiB (11%) Alignment : Aligned on interleaves Interleave, duration : 493 ms (11.82 video frames) Interleave, preload duration : 216 ms NOTE: Recommended player for all our movies http://www.videolan.org/vlc/ REMEMBER: GOD DEMANDS LOVE,SEEDS,PEERS AND A FAIR TORRENT RATIO
The Hunger Games (2012) BRRip XviD-3LT0N/The Hunger Games (2012) BRRip XviD-3LT0N.avi 788.602 MB
The Hunger Games (2012) BRRip XviD-3LT0N/the hunger games sample.avi 3.988 MB
The Hunger Games (2012) BRRip XviD-3LT0N/Screencaps.jpg 267.197 KB
Gathering some info...

Register and log in Isohunt and see no captcha anymore!

4000 symbols left
Hash 90207dc9e38e7a305355f570448ff117a2c3c499

Related torrents for "The Hunger Games (2012) BRRip XviD-3LT0N"

Torrent search:

2012 bd