imdb
rating

6.7
The Deep

The Deep (2012)

Drama

Full description

The Deep Blue Sea (2012) BRRip XviD-3LT0N

Size 803.781 MB   0 seeders     Added 2012-03-29 10:29:14

Stream torrent
Starting‥ You need BitLord! Get it from BitLord.com
To download or stream you need BitLord. Visit them at BitLord.com
The Deep Blue Sea (2012) BRRip XviD-3LT0N image thedeepbluesea.th.jpg Image Hosted by ImageShack.us
Shot at 2012-03-24 PLOT: The Deep Blue Sea The wife of a British Judge is caught in a self-destructive love affair with a Royal Air Force pilot. Director: Terence Davies Writers: Terence Davies (screenplay), Terence Rattigan (play) Stars: Rachel Weisz, Tom Hiddleston and Ann Mitchell Genres: Drama | Romance Runtime: 98 min File Size: 766 MB Format : AVI Format/Info : Audio Video Interleave Format profile : OpenDML Overall bit rate : 1 799 Kbps Writing application : VirtualDubMod 1.5.10.2 (build 2542/release) Writing library : VirtualDubMod build 2542/release Copyright : 3LTON Video ID : 0 Format : MPEG-4 Visual Format profile : AdvancedSimple@L5 Format settings, BVOP : Yes Format settings, QPel : No Format settings, GMC : No warppoints Format settings, Matrix : Custom Codec ID : XVID Codec ID/Hint : XviD Bit rate : 1 603 Kbps Width : 720 pixels Height : 304 pixels Display aspect ratio : 2.35:1 Frame rate : 23.976 fps Resolution : 24 bits Colorimetry : 4:2:0 Scan type : Progressive Bits/(Pixel*Frame) : 0.305 Stream size : 1.26 GiB (89%) Writing library : XviD 58 Audio ID : 1 Format : MPEG Audio Format version : Version 1 Format profile : Layer 3 Codec ID : 50 Codec ID/Hint : MP1 Bit rate mode : Constant Bit rate : 192 Kbps Channel(s) : 2 channels Sampling rate : 48.0 KHz Resolution : 16 bits Stream size : 155 MiB (11%) Alignment : Aligned on interleaves Interleave, duration : 493 ms (11.82 video frames) Interleave, preload duration : 216 ms NOTE: Recommended player for all our movies http://www.videolan.org/vlc/ REMEMBER: GOD DEMANDS LOVE,SEEDS,PEERS AND A FAIR TORRENT RATIO
The Deep Blue Sea (2012) BRRip XviD-3LT0N/The Deep Blue Sea (2012) BRRip XviD-3LT0N.avi 803.486 MB
The Deep Blue Sea (2012) BRRip XviD-3LT0N/SCREENCAPS.jpg 206.015 KB
The Deep Blue Sea (2012) BRRip XviD-3LT0N/Subs ENG.srt 82.896 KB
Gathering some info...

Register and log in Isohunt and see no captcha anymore!

4000 symbols left
Hash 2c9b7d91fddba840381595ccd9fe5fdcf8ad36a2

Related torrents for "The Deep Blue Sea (2012) BRRip XviD-3LT0N"

Torrent search:

2012 bd