imdb
rating

5.8
Wrath of the Titans

Wrath of the Titans (2012)

Adventure

Full description

Wrath of the Titans (2012) BRRip XviD-3LT0N

Size 800.246 MB   0 seeders     Added 2012-03-29 10:43:27

Stream torrent
Starting‥ You need BitLord! Get it from BitLord.com
10
To download or stream you need BitLord. Visit them at BitLord.com
Wrath of the Titans (2012) BRRip XviD-3LT0N image wrathn.th.jpg Image Hosted by ImageShack.us
Shot at 2012-03-24 Plot: Wrath of the Titans A decade after his heroic defeat of the monstrous Kraken, Perseus-the demigod son of Zeus-is attempting to live a quieter life as a village fisherman and the sole parent to his 10-year old son, Helius. Meanwhile, a struggle for supremacy rages between the gods and the Titans. Dangerously weakened by humanity's lack of devotion, the gods are losing control of the imprisoned Titans and their ferocious leader, Kronos, father of the long-ruling brothers Zeus, Hades and Poseidon. The triumvirate had overthrown their powerful father long ago, leaving him to rot in the gloomy abyss of Tartarus, a dungeon that lies deep within the cavernous underworld. Perseus cannot ignore his true calling when Hades, along with Zeus' godly son, Ares (Edgar Ramírez), switch loyalty and make a deal with Kronos to capture Zeus. The Titans' strength grows stronger as Zeus' remaining godly powers are siphoned, and hell is unleashed on earth. Enlisting the help of the warrior Queen Andromeda (Rosamund Pike), Poseidon's demigod son, Argenor (Toby Kebbell), and fallen god Hephaestus (Bill Nighy), Perseus bravely embarks on a treacherous quest into the underworld to rescue Zeus, overthrow the Titans and save mankind. Director: Jonathan Liebesman Writers: Dan Mazeau (screenplay), David Johnson (screenplay), and more. Stars: Sam Worthington, Liam Neeson and Rosamund Pike Genres: Action | Adventure | Fantasy Runtime: 99 min File Size: 763 MB Format : AVI Format/Info : Audio Video Interleave Format profile : OpenDML Overall bit rate : 1 799 Kbps Writing application : VirtualDubMod 1.5.10.2 (build 2542/release) Writing library : VirtualDubMod build 2542/release Copyright : 3LTON Video ID : 0 Format : MPEG-4 Visual Format profile : AdvancedSimple@L5 Format settings, BVOP : Yes Format settings, QPel : No Format settings, GMC : No warppoints Format settings, Matrix : Custom Codec ID : XVID Codec ID/Hint : XviD Bit rate : 1 603 Kbps Width : 720 pixels Height : 304 pixels Display aspect ratio : 2.35:1 Frame rate : 23.976 fps Resolution : 24 bits Colorimetry : 4:2:0 Scan type : Progressive Bits/(Pixel*Frame) : 0.305 Stream size : 1.26 GiB (89%) Writing library : XviD 58 Audio ID : 1 Format : MPEG Audio Format version : Version 1 Format profile : Layer 3 Codec ID : 50 Codec ID/Hint : MP1 Bit rate mode : Constant Bit rate : 192 Kbps Channel(s) : 2 channels Sampling rate : 48.0 KHz Resolution : 16 bits Stream size : 155 MiB (11%) Alignment : Aligned on interleaves Interleave, duration : 493 ms (11.82 video frames) Interleave, preload duration : 216 ms NOTE: Recommended player for all our movies http://www.videolan.org/vlc/ REMEMBER: GOD DEMANDS LOVE,SEEDS,PEERS AND A FAIR TORRENT RATIO
Wrath of the Titans (2012) BRRip XviD-3LT0N/Wrath of the Titans (2012) BRRip XviD-3LT0N.avi 799.822 MB
Wrath of the Titans (2012) BRRip XviD-3LT0N/Screencaps.jpg 335.929 KB
Wrath of the Titans (2012) BRRip XviD-3LT0N/Subs ENG.srt 82.896 KB
Gathering some info...

Register and log in Isohunt and see no captcha anymore!

4000 symbols left
Hash d64da2ac31fa5f0dee9294b205108b95fe753afc

Related torrents for "Wrath of the Titans (2012) BRRip XviD-3LT0N"

Torrent search:

2012 bd