Lo Schiaccianoci 2011 iTA ENG 720p Bluray x264 BtH mkv

Size 4.982 GB   0 seeders     Added 2012-03-29 21:00:12

Stream torrent
Starting‥ You need BitLord! Get it from BitLord.com
To download or stream you need BitLord. Visit them at BitLord.com
[b]Lo.Schiaccianoci.2011.iTA.ENG.720p.Bluray.x264.BtH[/b]

[img]image[/img]


[b][u]Scheda film:[/b][/u]

Titolo originale: The Nutcracker in 3D
Nazione: U.S.A.
Anno: 2010
Genere: Fantastico, Animazione
Durata: 110'
Regia: Andrei Konchalovsky
Sito ufficiale:
Sito italiano: http://www.m2pictures.it/lo-schiaccianoci-in-3d
Social network: facebook

Cast: Elle Fanning, Nathan Lane, John Turturro, Frances de la Tour, Richard E. Grant, Yuliya Vysotskaya, Shirley Henderson, Aaron Michael Drozin, Charlie Rowe, Peter Elliott
Produzione: Goldcrest Post Production London, HCC Media Group
Distribuzione: M2 Pictures
Data di uscita: 02 Dicembre 2011 (cinema)


[b][u]Trama:[/b][/u]

Lo Schiaccianoci 3D segue le vicende della piccola Mary (Ellen Fanning), il cui monotono Natale si riempie improvvisamente di emozioni quando lo zio Albert le regala uno schiaccianoci magico. La sera della vigilia lo Schiaccianoci prende vita e porta Mary nel suo mondo fantastico fatto di fate, confetti e tanti giocattoli che si animano. Ma questo regno meraviglioso è minacciato dal tirannico Re dei Topi (John Turturro), che prende in ostaggio lo Schiaccianoci. Mary e i suoi nuovi amici giocattolo dovranno svelare il segreto del malvagio Re dei Topi per salvare così lo Schiaccianoci e il suo regno.


[b]Screenshoot:[/b]

[img]http://postimage.org/image/3kd838q9b/[/img]
[img]http://postimage.org/image/yfueudxpr/[/img]
[img]http://postimage.org/image/rqnvedcdr/[/img]


Nome versione: BtH
Fonte video: REFiNED
Fonte audio: DVD
Tracce Audio: Ita AC3 - ENG DTS
Sub: Eng


[b]INFO FILE[/b]

General
Unique ID : 254470258710897181865624643809793338409 (0xBF71306A374F5B82BA48D2085AE4EC29)
Complete name : Lo.Schiaccianoci.2011.iTA.ENG.720p.Bluray.x264.BtH.mkv
Format : Matroska
File size : 4.64 GiB
Duration : 1h 43mn
Overall bit rate : 6 391 Kbps
Encoded date : UTC 2012-03-28 20:28:49
Writing application : mkvmerge v3.4.0 ('Rapunzel') built on May 15 2010 09:38:20
Writing library : libebml v0.8.0 + libmatroska v0.9.0

Video
ID : 1
Format : AVC
Format/Info : Advanced Video Codec
Format profile : High@L4.1
Format settings, CABAC : Yes
Format settings, ReFrames : 5 frames
Codec ID : V_MPEG4/ISO/AVC
Duration : 1h 43mn
Bit rate : 4 271 Kbps
Width : 1 280 pixels
Height : 544 pixels
Display aspect ratio : 2.35:1
Frame rate : 25.000 fps
Original frame rate : 23.976 fps
Color space : YUV
Chroma subsampling : 4:2:0
Bit depth : 8 bits
Scan type : Progressive
Bits/(Pixel*Frame) : 0.245
Stream size : 3.17 GiB (68%)
Writing library : x264 core 116 r2074 2641b9e
Encoding settings : cabac=1 / ref=5 / deblock=1:0:0 / analyse=0x3:0x133 / me=umh / subme=7 / psy=1 / psy_rd=1.00:0.00 / mixed_ref=1 / me_range=16 / chroma_me=1 / trellis=1 / 8x8dct=1 / cqm=0 / deadzone=21,11 / fast_pskip=0 / chroma_qp_offset=-2 / threads=9 / sliced_threads=0 / nr=0 / decimate=1 / interlaced=0 / bluray_compat=0 / constrained_intra=0 / bframes=3 / b_pyramid=2 / b_adapt=1 / b_bias=0 / direct=1 / weightb=1 / open_gop=0 / weightp=2 / keyint=250 / keyint_min=23 / scenecut=40 / intra_refresh=0 / rc_lookahead=40 / rc=2pass / mbtree=1 / bitrate=4271 / ratetol=1.0 / qcomp=0.60 / qpmin=0 / qpmax=69 / qpstep=4 / cplxblur=20.0 / qblur=0.5 / ip_ratio=1.40 / aq=1:1.00
Language : English

Audio #1
ID : 2
Format : AC-3
Format/Info : Audio Coding 3
Mode extension : CM (complete main)
Codec ID : A_AC3
Duration : 1h 43mn
Bit rate mode : Constant
Bit rate : 384 Kbps
Channel(s) : 6 channels
Channel positions : Front: L C R, Side: L R, LFE
Sampling rate : 48.0 KHz
Bit depth : 16 bits
Compression mode : Lossy
Stream size : 285 MiB (6%)
Title : Ita AC3
Language : Italian

Audio #2
ID : 3
Format : DTS
Format/Info : Digital Theater Systems
Codec ID : A_DTS
Duration : 1h 43mn
Bit rate mode : Constant
Bit rate : 1 510 Kbps
Channel(s) : 6 channels
Channel positions : Front: L C R, Side: L R, LFE
Sampling rate : 48.0 KHz
Bit depth : 24 bits
Compression mode : Lossy
Delay relative to video : 10ms
Stream size : 1.10 GiB (24%)
Title : Eng DTS
Language : English

Text
ID : 4
Format : UTF-8
Codec ID : S_TEXT/UTF8
Codec ID/Info : UTF-8 Plain Text
Title : Eng
Language : English
LoSchiaccian72/Lo.Schiaccianoci.2011.iTA.ENG.720p.Blura.x264.BtH.mkv 4.982 GB
Gathering some info...

Register and log in Isohunt and see no captcha anymore!

4000 symbols left
Hash 96b96a3fbc07e4969235f625338c723afd64fa29

Related torrents for "Lo Schiaccianoci 2011 iTA ENG 720p Bluray x264 BtH mkv"

Torrent search:

italian english x264 hd bd 2011