Taylor Swift-You Belong With Me 1080p Abhinav4u

Size 433.972 MB   0 seeders     Added 2012-03-30 02:37:42

Stream torrent
Starting‥ You need BitLord! Get it from BitLord.com
To download or stream you need BitLord. Visit them at BitLord.com
INFO:- Vieo:- Format : AVC Format/Info : Advanced Video Codec Format profile : High@L4.0 Format settings, CABAC : Yes Format settings, ReFrames : 4 frames Format settings, GOP : M=1, N=30 Muxing mode : Header stripping Codec ID : V_MPEG4/ISO/AVC Duration : 3mn 47s Bit rate : 5 517 Kbps Width : 1 920 pixels Height : 1 080 pixels Display aspect ratio : 16:9 Frame rate mode : Variable Frame rate : 29.970 fps Color space : YUV Chroma subsampling : 4:2:0 Bit depth : 8 bits Scan type : Progressive Bits/(Pixel*Frame) : 0.089 Stream size : 146 MiB (92%) Title : 1080p ~Abhinav4u~ Audio:- Format : AC-3 Format/Info : Audio Coding 3 Mode extension : CM (complete main) Muxing mode : Header stripping Codec ID : A_AC3 Duration : 3mn 47s Bit rate mode : Constant Bit rate : 384 Kbps Channel(s) : 2 channels Channel positions : Front: L R Sampling rate : 48.0 KHz Bit depth : 16 bits Compression mode : Lossy Stream size : 10.4 MiB (7%) Title : ~Abhinav4u~ Language : English Screenshots:- image image image image image image Enjoy the quality.. Regards::Abhinav4u
bent.104.720p-dimension.nfo 665 B
Bent.S01E04.720p.HDTV.X264-DIMENSION.mkv 433.971 MB
Gathering some info...

Register and log in Isohunt and see no captcha anymore!

4000 symbols left
Hash 6FEB1C7E92638BDCFEB0A302FD660EDAD01C204A

Related torrents for "Taylor Swift-You Belong With Me 1080p Abhinav4u"