imdb
rating

5.8
Wrath of the Titans

Wrath of the Titans (2012)

Adventure

Full description

Wrath of the Titans (2012) DVScR XviD.AC3 - ANCEX

Size 134.334 MB   0 seeders     Added 2012-03-30 02:51:42

Stream torrent
Starting‥ You need BitLord! Get it from BitLord.com
To download or stream you need BitLord. Visit them at BitLord.com
IMDb: http://www.imdb.com/title/tt1646987/ ------------------------------------------- Wrath of the Titans (2012) DVScR_XviD.AC3 - ANCEX ------------------------------------------------- Sample.....................: Yes Sample Size................: 35.6 Mib ------------------------------------- Details: ------- Video ID : 0 Format : MPEG-4 Visual Format profile : AdvancedSimple@L5 Format settings, BVOP : Yes Format settings, QPel : No Format settings, GMC : No warppoints Format settings, Matrix : Custom Codec ID : XVID Codec ID/Hint : XviD Duration : 1h 39mn Bit rate : 1 625 Kbps Width : 720 pixels Height : 304 pixels Display aspect ratio : 2.35:1 Frame rate : 23.976 fps Resolution : 24 bits Colorimetry : 4:2:0 Scan type : Progressive Bits/(Pixel*Frame) : 0.310 Stream size : 407 MiB (99%) Writing library : XviD 58 Audio ID : 1 Format : AC-3 Format/Info : Audio Coding 3 Codec ID : 2000 Duration : 1h 39mn Bit rate mode : Constant Bit rate : 192 Kbps Channel(s) : 2 channels Channel positions : L R Sampling rate : 48.0 KHz Stream size : 147 MiB (11%) Alignment : Aligned on interleaves Interleave, duration : 64 ms (1.53 video frames) Interleave, preload duration : 192 ms ----------------------------------------- Plot: ---- Perseus braves the treacherous underworld to rescue his father, Zeus, captured by his son, Ares, and brother Hades who unleash the ancient Titans upon the world. ----------------------------------------- Screenshots: ----------- -----------
27.Elle.Ven.-.Signals.jpeg 52.396 KB
27.Elle.Ven.-.Signals.vob 134.281 MB
Gathering some info...

Register and log in Isohunt and see no captcha anymore!

4000 symbols left
Hash 27242FFD2476CF9EB070D44E3FC5D9CEDFD64FB4

Related torrents for "Wrath of the Titans (2012) DVScR XviD.AC3 - ANCEX"

Torrent search:

2012