imdb
rating

8.6
The Colbert Report

The Colbert Report (2005)

Comedy

Full description

The Colbert Report 2012 03 28 Mark Ruffalo 480p HDTV x264-mSD

Size 106.332 MB   0 seeders     Added 2012-03-30 03:47:07

Stream torrent
Starting‥ You need BitLord! Get it from BitLord.com
To download or stream you need BitLord. Visit them at BitLord.com
IMDb: http://www.imdb.com/title/tt1646987/ ------------------------------------------- Wrath of the Titans (2012) DVScR_XviD.AC3 - AVEX ------------------------------------------------ Sample.....................: Yes Sample Size................: 35.6 Mib ------------------------------------- Details: ------- Video ID : 0 Format : MPEG-4 Visual Format profile : AdvancedSimple@L5 Format settings, BVOP : Yes Format settings, QPel : No Format settings, GMC : No warppoints Format settings, Matrix : Custom Codec ID : XVID Codec ID/Hint : XviD Duration : 1h 39mn Bit rate : 1 625 Kbps Width : 720 pixels Height : 304 pixels Display aspect ratio : 2.35:1 Frame rate : 23.976 fps Resolution : 24 bits Colorimetry : 4:2:0 Scan type : Progressive Bits/(Pixel*Frame) : 0.310 Stream size : 691 MiB (99%) Writing library : XviD 58 Audio ID : 1 Format : AC-3 Format/Info : Audio Coding 3 Codec ID : 2000 Duration : 1h 39mn Bit rate mode : Constant Bit rate : 192 Kbps Channel(s) : 2 channels Channel positions : L R Sampling rate : 48.0 KHz Stream size : 147 MiB (11%) Alignment : Aligned on interleaves Interleave, duration : 64 ms (1.53 video frames) Interleave, preload duration : 192 ms ----------------------------------------- Plot: ---- Perseus braves the treacherous underworld to rescue his father, Zeus, captured by his son, Ares, and brother Hades who unleash the ancient Titans upon the world. ----------------------------------------- Screenshots: ----------- ---------------
[ www.TorrentDay.com ] - The.Colbert.Report.2012.03.28.Mark.Ruffalo.480p.HDTV.x264-mSD/First Read This Guide.txt 472 B
[ www.TorrentDay.com ] - The.Colbert.Report.2012.03.28.Mark.Ruffalo.480p.HDTV.x264-mSD/The.Colbert.Report.2012.03.28.Mark.Ruffalo.480p.HDTV.x264-mSD.mkv 106.33 MB
[ www.TorrentDay.com ] - The.Colbert.Report.2012.03.28.Mark.Ruffalo.480p.HDTV.x264-mSD/The.Colbert.Report.2012.03.28.Mark.Ruffalo.480p.HDTV.x264-mSD.nfo 1.159 KB
Gathering some info...

Register and log in Isohunt and see no captcha anymore!

4000 symbols left
Hash bfb63829413cfbae28710d2f6305d3481a53e297

Related torrents for "The Colbert Report 2012 03 28 Mark Ruffalo 480p HDTV x264-mSD"

Torrent search:

x264 hdtv 2012