The Dillinger Escape Plan - Option Paralysis (2010) [FLAC][TNTVILLAGE]

Size 337.5 MB   0 seeders     Added 2012-03-30 20:10:07

Stream torrent
Starting‥ You need BitLord! Get it from BitLord.com
To download or stream you need BitLord. Visit them at BitLord.com
[URL=http://forum.tntvillage.scambioetico.org/tntforum/index.php?showtopic=201336][IMG]image[/IMG][/URL]

[b][size=12][color=red]The Dillinger Escape Plan - Option Paralysis (2010)[/size][/b][/color]

[url=http://postimage.org/image/5rakox3uj/][img]image[/img][/url]





[b][color=red].: Info :.[/color][/b]
[b]Aurore / Author(s):[/b] The Dillinger Escape Plan 
[b]Titolo originale / Original Title:[/b] Option Paralysis 
[b]Anno / Year:[/b] 2010
[b]Durata / Runtime:[/b] 41:28
[b]Genere / Genre:[/b] Mathcore, avant-garde metal
[b]Etichetta / Label:[/b] Party Smasher, Season of Mist
[b]Language:[/b] english


[b][color=red].: Plot & Review :.[/color][/b]
Summary: Option Paralysis is a work of art, but don’t think for a second they’ve gone soft on us.

Scatterbrained as the Dillinger Escape Plan’s music may sound, it is precisely orchestrated and delicately planned as a New York City subway grid. Beginning with their often forgotten, benchmark EP Under The Running Board, DEP have brought a tenacity and style that remains profoundly unique. In spite of line-up changes - like that of Chris Pennie, who fled to drum with Coheed and Cambria - their vision remains boundless. That distinctive style, which is often cited as being created by the Dillinger Escape Plan, consists of a blend of metal and hardcore trickled with unorthodox time signatures to create what many call mathcore are hardly forgotten. Ben Weinman, the last remaining founding member, has kept guarded this core foundation of the group’s reputation while jazzing up their sound to levels that would leave fans who had missed the period between Calculating Infinity and now would be left befuddled. However, Option Paralysis is hardly an identity crisis, an album that jogs and then sprints while remaining perfectly balanced through each new musical tangent.
For weeks now, “Farewell, Mona Lisa” has been all but a tease of possibilities, but more importantly a track that questioned what direction that Option Paralysis would take. Would it be the frantic first two minutes that would keep the album steadfast or perhaps the artistry of the middle chunk that showed the Dillinger Escape Plan were consistently capable of creating developing tracks? Or even the melodramatic, paramount ending of “Farewell, Mona Lisa” that rivaled the heaviest moments in the band’s long history such as “Sunshine the Werewolf.” It turns out that the wealth was evenly distributed, providing an element of finesse. “Good Neighbor” sets a blistering path with “Crystal Morning” and “Endless Endings” sizing up punch-for-punch with bone-jarring screams. Recently-recruited drummer, Billy Rymer, shows off his technical prowess and versatility in “Endless Ending,” dancing along the ride cymbal and providing blast beats. However, Option Paralysis is not simply a constant adrenaline rush.
Surprisingly, at forty-one minutes Option Paralysis is the longest album the Dillinger Escape Plan have released, and that may be credited to the meticulous construction of the album. Instead of the short blips and glitches found throughout the inconsistent Ire Works, we find the band taking a monumental stride in their ability to create colossal tracks, even if they take a road less ventured. Overall, they have become more graceful, rather than having tracks that flash by quickly (there are only three tracks under four minutes), they create brooding, yet beautiful, soundscapes. Removed of the constant barrage of abrasive riffs, songs like “Gold Teeth on a Bum” and “Widower” leans into a more open, free-flowing structure. The mood of “Gold Teeth on a Bum” comes off as intimidating yet fragile by creating a once blasphemous marriage between metal and pop. Weinman and Jeff Tuttle are incredibly technical and crisp throughout the record while Liam Wilson holds his own ground on bass. “Widower” effortlessly transitions from guest pianist Mike Garson’s heartfelt ballad (yes, you are still reading about a DEP album) alongside Puciato’s vastly improved vocals to a most impulsive, fitting ending of barraging spastic riffs. Essentially, it reminds us of “Mouth of Ghosts” from Ire Works, but on steroids and executed with less predictability, showing us once again their capability to reach outside their comfort zone.
It’s the chills that run down my spine when Greg Puciato screams ‘REAP WHAT WE SOW’ in “Room Full of Eyes,” the closing breakdown in “Farewell, Mona Lisa,” and the constantly-changing product that bring us back to the Dillinger Escape Plan, even after a the slight letdown of Ire Works. Option Paralysis equivocates the maturation of musical ideas over the Dillinger Escape Plan’s storied career, as Miss Machine and Ire Works are currently looking as mere test samples leading up to this point. In all, Option Paralysis is a work of art, but don’t think for a second they’ve gone soft on us.

(by Ryan Flatley, from sputnikmusic.com )

[b][color=red].: Critica e Sinossi :.[/color][/b]
Dopo molti altri pezzi da novanta, sono tornati anche loro. Ragazzi in preda a spasmi alterni, teorici del caos, pragmatici del tempo dispari: comunque li vogliate definire, i The Dillinger Escape Plan sono di nuovo in carreggiata, anche in studio. Lo dico da subito, chi stesse ancora aspettando il ritorno alle sonorità di Calculating Infinity può abbandonarne il pensiero, anche questa volta. Uno dei gruppi più rivoluzionari degli ultimi dieci anni -qualunque siano i gusti, penso che la definizione si possa condividere- continua imperterrito per la propria strada. Una direzione che non è più quella dell'attacco frontale, dell'invasione sonica schizoide e monodirezionale.
I The Dillinger Escape Plan erano già cambiati in precedenza, ed in realtà il loro mutamento andava di pari passo con l'esperienza. I nostri diventavano sempre più popolari, il gioco si faceva più arduo. Il gruppo avrebbe potuto scegliere di continuare sulla via dell'impatto incondizionato, ma ha preferito mischiare le carte. Negli anni sono diventati quel che sono ora, ovvero quel che c'è in questo Option Paralysis: contaminazione. Ci sono persone, purtroppo anche in questo mondo, che appena sentono parlare di questa caratteristica, scappano a gambe levate, o, se docenti ordinari ad Oxford, cominciano ad offendere la band "venduta" di turno, intervallando il tutto con frizzanti bestemmie di contorno.
La verità è che per gestire la contaminazione sonora -e non solo- ci vuole cultura. Per farlo molto bene serve anche preparazione tecnica e classe. I The Dillinger Escape Plan hanno tutte queste qualità. Anche in questo album, quindi, si evince in maniera chiara come nel math/core ci sia una band al di sopra delle altre, ed è quella di cui si parla. Che in alcuni casi le sonorità si spostino maggiormente verso il rock, verso lievi accenti crossover, che puntino alla melodia o direttamente alla schizofrenia primigenia conta poco. E' l'insieme che va giudicato e nell'insieme mi esprimo. Di effettuare paragoni col passato non se ne parli. Sarebbe insensato addentrarsi in comparazioni con quello che il gruppo era e faceva dieci anni fa. Un lavoro va giudicato per quel che è e non per attinenze col proprio passato; non fosse così basterebbe rifare lo stesso album ogni due anni all'insegna del "Ei fu, siccome immobile". Il track by track sarebbe opera improba e altamente dannosa per la consistenza dell'apparato riproduttivo del sottoscritto e di chi legge. Evitiamolo, soprattutto con Option Paralysis, un lavoro che va ascoltato interamente più e più volte prima di derivarne un giudizio. Questo gruppo è semplicemente cresciuto nel corso degli anni, ha arricchito le potenzialità del songwriting. Se è vero che la follia apparente è sempre il nucleo attorno al quale ruota il loro sound, è altrettanto vero che qualcosa di folle non debba per forza essere veloce all'inverosimile ed in maniera ripetuta. Il moto perpetuo, con buona pace della termodinamica, non appartiene più ai The Dillinger Escape Plan che ormai lo hanno modulato a proprio uso e consumo, mitigandolo con altre espressioni. Un insieme di variabili che costituiscono la manifestazione migliore di questo gruppo, perché è in tale modo che davvero non si sa cosa aspettarsi dal prossimo colpo di rullante, dal riff che lo seguirà e dal timbro vocale che darà direzione al tutto. Così facendo si palesa al meglio il potenziale schizofrenico che la band ha nella propria indole. Un'intensità che continua a mutare, come un essere in continua evoluzione. Un modo, una maniera e un garbo con cui viene gestita la melodia, intercalata da spazi a tratti claustrofobici, ad altri impulsivi. Una capacità che si basa sul saper dosare una tecnica esemplare, riuscendo ad averne sempre il controllo e racchiudendola entro spazi giusti. Meandri entro i quali questa viene ancora più amplificata per quel senso di rottura, di smarrimento che ne deriva quando appare per poi nascondersi: un lavoro che solo le band di talento riescono a fare.
Non so dove porterà questo itinerario, magari per molti si tratterà di involuzione, o peggio. Gente che è solita indossare paraocchi degni dei peggiori ronzini da parata li bollerà come esempio di mainstream in saldo, il classico prodotto da commercializzare per poi passare all'incasso. Baggianate. A me sembra che questi ragazzi, partiti alla grande più di dieci anni fa, non si stanchino di maturare e dopo aver elaborato allora, in quegli anni, qualcosa di nuovo, se ne vogliano in parte disfare, per rimettersi ancora una volta in gioco e reinventarsi.
(di Alex "Ve", da metallized.it )


[b] info in sintesi [/b]
- tracce encodate in Flac, stereo, 44100 Hz
- scan di copertine e libretto interno


[b][color=red].: [URL=http://mediainfo.sourceforge.net]Mediainfo[/URL] report:.[/color][/b]
[list]
General
Complete name                            : 01 - Farewell, Mona Lisa.flac
Format                                   : FLAC
Format/Info                              : Free Lossless Audio Codec
File size                                : 40.7 MiB
Duration                                 : 5mn 23s
Overall bit rate mode                    : Variable
Overall bit rate                         : 1 055 Kbps
Album                                    : Option Paralysis
Track name                               : Farewell, Mona Lisa
Track name/Position                      : 01
Performer                                : The Dillinger Escape Plan
Recorded date                            : 0

Audio
Format                                   : FLAC
Format/Info                              : Free Lossless Audio Codec
Duration                                 : 5mn 23s
Bit rate mode                            : Variable
Bit rate                                 : 1 055 Kbps
Channel(s)                               : 2 channels
Sampling rate                            : 44.1 KHz
Bit depth                                : 16 bits
Stream size                              : 40.7 MiB (100%)
Writing library                          : libFLAC 1.2.1 (UTC 2007-09-17)

General
Complete name                            : 02 - Good Neighbor.flac
Format                                   : FLAC
Format/Info                              : Free Lossless Audio Codec
File size                                : 19.9 MiB
Duration                                 : 2mn 30s
Overall bit rate mode                    : Variable
Overall bit rate                         : 1 108 Kbps
Album                                    : Option Paralysis
Track name                               : Good Neighbor
Track name/Position                      : 02
Performer                                : The Dillinger Escape Plan
Recorded date                            : 0

Audio
Format                                   : FLAC
Format/Info                              : Free Lossless Audio Codec
Duration                                 : 2mn 30s
Bit rate mode                            : Variable
Bit rate                                 : 1 108 Kbps
Channel(s)                               : 2 channels
Sampling rate                            : 44.1 KHz
Bit depth                                : 16 bits
Stream size                              : 19.9 MiB (100%)
Writing library                          : libFLAC 1.2.1 (UTC 2007-09-17)

General
Complete name                            : 03 - Gold Teeth On A Bum.flac
Format                                   : FLAC
Format/Info                              : Free Lossless Audio Codec
File size                                : 42.7 MiB
Duration                                 : 5mn 22s
Overall bit rate mode                    : Variable
Overall bit rate                         : 1 109 Kbps
Album                                    : Option Paralysis
Track name                               : Gold Teeth On A Bum
Track name/Position                      : 03
Performer                                : The Dillinger Escape Plan
Recorded date                            : 0

Audio
Format                                   : FLAC
Format/Info                              : Free Lossless Audio Codec
Duration                                 : 5mn 22s
Bit rate mode                            : Variable
Bit rate                                 : 1 108 Kbps
Channel(s)                               : 2 channels
Sampling rate                            : 44.1 KHz
Bit depth                                : 16 bits
Stream size                              : 42.6 MiB (100%)
Writing library                          : libFLAC 1.2.1 (UTC 2007-09-17)

General
Complete name                            : 04 - Crystal Morning.flac
Format                                   : FLAC
Format/Info                              : Free Lossless Audio Codec
File size                                : 16.0 MiB
Duration                                 : 2mn 2s
Overall bit rate mode                    : Variable
Overall bit rate                         : 1 096 Kbps
Album                                    : Option Paralysis
Track name                               : Crystal Morning
Track name/Position                      : 04
Performer                                : The Dillinger Escape Plan
Recorded date                            : 0

Audio
Format                                   : FLAC
Format/Info                              : Free Lossless Audio Codec
Duration                                 : 2mn 2s
Bit rate mode                            : Variable
Bit rate                                 : 1 095 Kbps
Channel(s)                               : 2 channels
Sampling rate                            : 44.1 KHz
Bit depth                                : 16 bits
Stream size                              : 16.0 MiB (100%)
Writing library                          : libFLAC 1.2.1 (UTC 2007-09-17)

General
Complete name                            : 05 - Endless Endings.flac
Format                                   : FLAC
Format/Info                              : Free Lossless Audio Codec
File size                                : 20.0 MiB
Duration                                 : 2mn 32s
Overall bit rate mode                    : Variable
Overall bit rate                         : 1 099 Kbps
Album                                    : Option Paralysis
Track name                               : Endless Endings
Track name/Position                      : 05
Performer                                : The Dillinger Escape Plan
Recorded date                            : 0

Audio
Format                                   : FLAC
Format/Info                              : Free Lossless Audio Codec
Duration                                 : 2mn 32s
Bit rate mode                            : Variable
Bit rate                                 : 1 099 Kbps
Channel(s)                               : 2 channels
Sampling rate                            : 44.1 KHz
Bit depth                                : 16 bits
Stream size                              : 20.0 MiB (100%)
Writing library                          : libFLAC 1.2.1 (UTC 2007-09-17)

General
Complete name                            : 06 - Widower.flac
Format                                   : FLAC
Format/Info                              : Free Lossless Audio Codec
File size                                : 41.8 MiB
Duration                                 : 6mn 23s
Overall bit rate mode                    : Variable
Overall bit rate                         : 915 Kbps
Album                                    : Option Paralysis
Track name                               : Widower
Track name/Position                      : 06
Performer                                : The Dillinger Escape Plan
Recorded date                            : 0

Audio
Format                                   : FLAC
Format/Info                              : Free Lossless Audio Codec
Duration                                 : 6mn 23s
Bit rate mode                            : Variable
Bit rate                                 : 915 Kbps
Channel(s)                               : 2 channels
Sampling rate                            : 44.1 KHz
Bit depth                                : 16 bits
Stream size                              : 41.8 MiB (100%)
Writing library                          : libFLAC 1.2.1 (UTC 2007-09-17)

General
Complete name                            : 07 - Room Full Of Eyes.flac
Format                                   : FLAC
Format/Info                              : Free Lossless Audio Codec
File size                                : 33.5 MiB
Duration                                 : 4mn 15s
Overall bit rate mode                    : Variable
Overall bit rate                         : 1 098 Kbps
Album                                    : Option Paralysis
Track name                               : Room Full Of Eyes
Track name/Position                      : 07
Performer                                : The Dillinger Escape Plan
Recorded date                            : 0

Audio
Format                                   : FLAC
Format/Info                              : Free Lossless Audio Codec
Duration                                 : 4mn 15s
Bit rate mode                            : Variable
Bit rate                                 : 1 098 Kbps
Channel(s)                               : 2 channels
Sampling rate                            : 44.1 KHz
Bit depth                                : 16 bits
Stream size                              : 33.5 MiB (100%)
Writing library                          : libFLAC 1.2.1 (UTC 2007-09-17)

General
Complete name                            : 08 - Chinese Whispers.flac
Format                                   : FLAC
Format/Info                              : Free Lossless Audio Codec
File size                                : 31.8 MiB
Duration                                 : 4mn 6s
Overall bit rate mode                    : Variable
Overall bit rate                         : 1 079 Kbps
Album                                    : Option Paralysis
Track name                               : Chinese Whispers
Track name/Position                      : 08
Performer                                : The Dillinger Escape Plan
Recorded date                            : 0

Audio
Format                                   : FLAC
Format/Info                              : Free Lossless Audio Codec
Duration                                 : 4mn 6s
Bit rate mode                            : Variable
Bit rate                                 : 1 079 Kbps
Channel(s)                               : 2 channels
Sampling rate                            : 44.1 KHz
Bit depth                                : 16 bits
Stream size                              : 31.8 MiB (100%)
Writing library                          : libFLAC 1.2.1 (UTC 2007-09-17)

General
Complete name                            : 09 - I Wouldn't If You Didn't.flac
Format                                   : FLAC
Format/Info                              : Free Lossless Audio Codec
File size                                : 32.7 MiB
Duration                                 : 4mn 14s
Overall bit rate mode                    : Variable
Overall bit rate                         : 1 079 Kbps
Album                                    : Option Paralysis
Track name                               : I Wouldn't If You Didn't
Track name/Position                      : 09
Performer                                : The Dillinger Escape Plan
Recorded date                            : 0

Audio
Format                                   : FLAC
Format/Info                              : Free Lossless Audio Codec
Duration                                 : 4mn 14s
Bit rate mode                            : Variable
Bit rate                                 : 1 079 Kbps
Channel(s)                               : 2 channels
Sampling rate                            : 44.1 KHz
Bit depth                                : 16 bits
Stream size                              : 32.7 MiB (100%)
Writing library                          : libFLAC 1.2.1 (UTC 2007-09-17)

General
Complete name                            : 10 - Parasitic Twins.flac
Format                                   : FLAC
Format/Info                              : Free Lossless Audio Codec
File size                                : 33.6 MiB
Duration                                 : 4mn 41s
Overall bit rate mode                    : Variable
Overall bit rate                         : 1 003 Kbps
Album                                    : Option Paralysis
Track name                               : Parasitic Twins
Track name/Position                      : 10
Performer                                : The Dillinger Escape Plan
Recorded date                            : 0

Audio
Format                                   : FLAC
Format/Info                              : Free Lossless Audio Codec
Duration                                 : 4mn 41s
Bit rate mode                            : Variable
Bit rate                                 : 1 003 Kbps
Channel(s)                               : 2 channels
Sampling rate                            : 44.1 KHz
Bit depth                                : 16 bits
Stream size                              : 33.6 MiB (100%)
Writing library                          : libFLAC 1.2.1 (UTC 2007-09-17)
[/list]



[b][color=red].: Ringraziamenti :.[/color][/b]
* chi ha fatto l'album
* chi ha fatto il cd
* chi ha scritto le recensioni 
* postimage per l'hosting delle immagini


Orario di seed e Banda disponibile: 4/7 - ~24/24  --> 20++ Kbps
The Dillinger Escape Plan - Option Paralysis (2010)/01 - Farewell, Mona Lisa.flac 42.654 MB
The Dillinger Escape Plan - Option Paralysis (2010)/02 - Good Neighbor.flac 20.825 MB
The Dillinger Escape Plan - Option Paralysis (2010)/03 - Gold Teeth On A Bum.flac 44.728 MB
Gathering some info...

Register and log in Isohunt and see no captcha anymore!

4000 symbols left
Hash 3db692feee846b083a09c024079d7498f2555672