21 Jump Street (2012) TS READNFO XViD - IMAGiNE

Size 828.812 MB   0 seeders     Added 2012-03-31 02:56:56

Stream torrent
Starting‥ You need BitLord! Get it from BitLord.com
To download or stream you need BitLord. Visit them at BitLord.com
21 Jump Street (2012) TS READNFO XViD - IMAGiNE\r\n\r\n\r\nimage\r\n\r\n
Shot at 2012-\r\n\r\n03-24\r\n\r\nPlot:\r\n\r\n21 Jump Street (2012) \r\n\r\nIn high school, Schmidt (Jonah Hill) \r\n\r\nwas a dork and Jenko (Channing \r\n\r\nTatum) was the popular jock. After \r\n\r\ngraduation, both of them joined the \r\n\r\npolice force and ended up as partners \r\n\r\nriding bicycles in the city park. Since \r\n\r\nthey are young and look like high \r\n\r\nschool students, they are assigned to \r\n\r\nan undercover unit to infiltrate a drug \r\n\r\nring that is supplying high school \r\n\r\nstudents synthetic drugs.\r\n\r\nDirectors: Phil Lord, Chris Miller\r\nWriters: Michael Bacall (screenplay), \r\n\r\nMichael Bacall (story), and more.\r\nStars: Jonah Hill, Channing Tatum and \r\n\r\nIce Cube\r\n\r\nGenres: Action | Comedy\r\n\r\nRuntime: 109 min\r\nFile Size : 790 MB\r\n\r\nFormat : AVI\r\nFormat/Info : Audio Video \r\n\r\nInterleave\r\nFormat profile : OpenDML\r\nOverall bit rate : 1 799 Kbps\r\nWriting application : \r\n\r\nVirtualDubMod 1.5.10.2 (build \r\n\r\n2542/release)\r\nWriting library : \r\n\r\nVirtualDubMod build 2542/release\r\nCopyright : IMAGiNE\r\n\r\nVideo\r\nID : 0\r\nFormat : MPEG-4 Visual\r\nFormat profile : \r\n\r\nAdvancedSimple@L5\r\nFormat settings, BVOP : Yes\r\nFormat settings, QPel : No\r\nFormat settings, GMC : No \r\n\r\nwarppoints\r\nFormat settings, Matrix : Custom\r\nCodec ID : XVID\r\nCodec ID/Hint : XviD\r\nBit rate : 1 603 Kbps\r\nWidth : 720 pixels\r\nHeight : 304 pixels\r\nDisplay aspect ratio : 2.35:1\r\nFrame rate : 23.976 fps\r\nResolution : 24 bits\r\nColorimetry : 4:2:0\r\nScan type : Progressive\r\nBits/(Pixel*Frame) : 0.305\r\nStream size : 1.26 GiB \r\n\r\n(89%)\r\nWriting library : XviD 58\r\n\r\nAudio\r\nID : 1\r\nFormat : MPEG Audio\r\nFormat version : Version 1\r\nFormat profile : Layer 3\r\nCodec ID : 50\r\nCodec ID/Hint : MP1\r\nBit rate mode : Constant\r\nBit rate : 192 Kbps\r\nChannel(s) : 2 channels\r\nSampling rate : 48.0 KHz\r\nResolution : 16 bits\r\nStream size : 155 MiB \r\n\r\n(11%)\r\nAlignment : Aligned on \r\n\r\ninterleaves\r\nInterleave, duration : 493 ms \r\n\r\n(11.82 video frames)\r\nInterleave, preload duration : 216 \r\n\r\nms\r\n\r\n\r\nNOTE:\r\n\r\nRecommended player for all our \r\n\r\nmovies\r\nhttp://www.videolan.org/vlc/\r\n\r\nREMEMBER: GOD DEMANDS \r\n\r\nLOVE,SEEDS,PEERS AND A FAIR \r\n\r\nTORRENT RATIO
21 Jump Street (2012) TS READNFO XViD - IMAGiNE.avi 827.966 MB
Screencaps.jpg 757.118 KB
Subs ENG.srt 82.896 KB
Gathering some info...

Register and log in Isohunt and see no captcha anymore!

4000 symbols left
Hash 9B2231C04850B2AD9E2F49A9AE6BA139831B58FB