imdb
rating

5.9
A Thousand Words

A Thousand Words (2012)

Comedy, Drama

Full description

A Thousand Words (2012) TS READNFO XViD - IMAGiNE

Size 796.96 MB   0 seeders     Added 2012-03-31 12:45:13

Stream torrent
Starting‥ You need BitLord! Get it from 1BitLord.com
To download or stream you need BitLord. Visit them at BitLord.com
A Thousand Words (2012) TS READNFO XViD - IMAGiNE image athousandwords.th.jpg Image Hosted by ImageShack.us
Shot at 2012-03-24 PLOT: A Thousand Words After stretching the truth on a deal with a spiritual guru, literary agent Jack McCall finds a Bodhi tree on his property. Its appearance holds a valuable lesson on the consequences of every word we speak. Director: Brian Robbins Writer: Steve Koren Stars: Eddie Murphy, Cliff Curtis and Kerry Washington Genres: Comedy | Drama Runtime: 91 min File Size: 760 MB Format : AVI Format/Info : Audio Video Interleave Format profile : OpenDML Overall bit rate : 1 799 Kbps Writing application : VirtualDubMod 1.5.10.2 (build 2542/release) Writing library : VirtualDubMod build 2542/release Copyright : IMAGiNE Video ID : 0 Format : MPEG-4 Visual Format profile : AdvancedSimple@L5 Format settings, BVOP : Yes Format settings, QPel : No Format settings, GMC : No warppoints Format settings, Matrix : Custom Codec ID : XVID Codec ID/Hint : XviD Bit rate : 1 603 Kbps Width : 720 pixels Height : 304 pixels Display aspect ratio : 2.35:1 Frame rate : 23.976 fps Resolution : 24 bits Colorimetry : 4:2:0 Scan type : Progressive Bits/(Pixel*Frame) : 0.305 Stream size : 1.26 GiB (89%) Writing library : XviD 58 Audio ID : 1 Format : MPEG Audio Format version : Version 1 Format profile : Layer 3 Codec ID : 50 Codec ID/Hint : MP1 Bit rate mode : Constant Bit rate : 192 Kbps Channel(s) : 2 channels Sampling rate : 48.0 KHz Resolution : 16 bits Stream size : 155 MiB (11%) Alignment : Aligned on interleaves Interleave, duration : 493 ms (11.82 video frames) Interleave, preload duration : 216 ms NOTE: Recommended player for all our movies http://www.videolan.org/vlc/ REMEMBER: GOD DEMANDS LOVE,SEEDS,PEERS AND A FAIR TORRENT RATIO
A Thousand Words (2012) TS READNFO XViD - IMAGiNE/A Thousand Words (2012) TS READNFO XViD - IMAGiNE.avi 796.239 MB
A Thousand Words (2012) TS READNFO XViD - IMAGiNE/Screencaps.jpg 633.034 KB
A Thousand Words (2012) TS READNFO XViD - IMAGiNE/Subs ENG.srt 82.896 KB
Gathering some info...

Register and log in Isohunt and see no captcha anymore!

4000 symbols left
Hash a6ac6ba076bb3d39f649cea0a9fb44c1f57f23e0

Related torrents for "A Thousand Words (2012) TS READNFO XViD - IMAGiNE"

Torrent search:

telesync 2012