imdb
rating

6.1
Brake

Brake (2012)

Action, Thriller

Full description
quality   screener dvdrip hd telesync dvd

Brake (2012) DVDSCR XViD -INSPiRAL

Size 811.735 MB   0 seeders     Added 2012-03-31 23:01:57

Stream torrent
Starting‥ You need BitLord! Get it from BitLord.com
To download or stream you need BitLord. Visit them at BitLord.com
Brake (2012) DVDSCR XViD -INSPiRAL image brake.th.jpg Image Hosted by   ImageShack.us
Shot at 2012-03-24 Plot : Brake What appears to be a random kidnapping becomes something more sinister when Secret Service Agent Jeremy Reins discovers he's being used as a pawn in a terrorist plot. Watching the clock tick down to an unknown catastrophe, Jeremy is forced by his captors to listen to the outside world on the brink of collapse, knowing that the only way to save the people he loves is to divulge a secret that he has sworn to protect. Director: Gabe Torres Writer: Timothy Mannion Stars: Stephen Dorff, Chyler Leigh and JR Bourne Genres: Crime | Thriller Runtime: 92 min File Size: 774 MB Format : AVI Format/Info : Audio Video Interleave Format profile : OpenDML Overall bit rate : 1 799 Kbps Writing application : VirtualDubMod 1.5.10.2 (build 2542/release) Writing library : VirtualDubMod build 2542/release Copyright : INSPiRAL Video ID : 0 Format : MPEG-4 Visual Format profile : AdvancedSimple@L5 Format settings, BVOP : Yes Format settings, QPel : No Format settings, GMC : No warppoints Format settings, Matrix : Custom Codec ID : XVID Codec ID/Hint : XviD Bit rate : 1 603 Kbps Width : 720 pixels Height : 304 pixels Display aspect ratio : 2.35:1 Frame rate : 23.976 fps Resolution : 24 bits Colorimetry : 4:2:0 Scan type : Progressive Bits/(Pixel*Frame) : 0.305 Stream size : 1.26 GiB (89%) Writing library : XviD 58 Audio ID : 1 Format : MPEG Audio Format version : Version 1 Format profile : Layer 3 Codec ID : 50 Codec ID/Hint : MP1 Bit rate mode : Constant Bit rate : 192 Kbps Channel(s) : 2 channels Sampling rate : 48.0 KHz Resolution : 16 bits Stream size : 155 MiB (11%) Alignment : Aligned on interleaves Interleave, duration : 493 ms (11.82 video frames) Interleave, preload duration : 216 ms NOTE: Recommended player for all our movies http://www.videolan.org/vlc/ REMEMBER: GOD DEMANDS LOVE,SEEDS,PEERS AND A FAIR TORRENT RATIO
Brake (2012) DVDSCR XViD -INSPiRAL/Brake (2012) DVDSCR XViD -INSPiRAL.avi 811.646 MB
Brake (2012) DVDSCR XViD -INSPiRAL/Subs ENG.srt 82.896 KB
Brake (2012) DVDSCR XViD -INSPiRAL/Brake (2012) DVDSCR XViD -INSPiRAL.nfo 4.859 KB
Gathering some info...

Register and log in Isohunt and see no captcha anymore!

4000 symbols left
Hash c72061909e09d57a2241fd12d9ab7491267301be

Related torrents for "Brake (2012) DVDSCR XViD -INSPiRAL"

Torrent search:

screener 2012