imdb
rating

5.8
Wrath of the Titans

Wrath of the Titans (2012)

Adventure

Full description

Wrath Of The Titans 2012 CAM XViD - INSPiRAL

Size 1.456 GB   20 seeders     Added 2012-04-02 01:30:38

Stream torrent
Starting‥ You need BitLord! Get it from BitLord.com
10
To download or stream you need BitLord. Visit them at BitLord.com
[img]image[/img]

TITLE:

Wrath Of The Titans 2012 CAM XViD - INSPiRAL

IMDB:

http://www.imdb.com/title/tt1646987/


SOURCES:

VIDEO - RUSSIAN THANKS M8
AUDIO - SANTANAS THANKS M8
SUBS  - None Add

STATS:

Video
ID                                       : 0
Format                                   : MPEG-4 Visual
Format profile                           : Advanced Simple@L5
Format settings, BVOP                    : 2
Format settings, QPel                    : No
Format settings, GMC                     : No warppoints
Format settings, Matrix                  : Default (MPEG)
Muxing mode                              : Packed bitstream
Codec ID                                 : XVID
Codec ID/Hint                            : XviD
Duration                                 : 1h 30mn
Bit rate                                 : 2 042 Kbps
Width                                    : 720 pixels
Height                                   : 384 pixels
Display aspect ratio                     : 1.875
Frame rate                               : 25.000 fps
Color space                              : YUV
Chroma subsampling                       : 4:2:0
Bit depth                                : 8 bits
Scan type                                : Progressive
Compression mode                         : Lossy
Bits/(Pixel*Frame)                       : 0.295
Stream size                              : 1.29 GiB (97%)
Writing library                          : XviD 64

Audio
ID                                       : 1
Format                                   : MPEG Audio
Codec ID                                 : 55
Codec ID/Hint                            : MP3
Duration                                 : 1h 30mn
Bit rate                                 : 64.0 Kbps
Channel(s)                               : 1 channel
Sampling rate                            : 22.05 KHz
Compression mode                         : Lossy
Stream size                              : 41.4 MiB (3%)
Alignment                                : Split accross interleaves
Interleave, duration                     : 40 ms (1.00 video frame)
Interleave, preload duration             : 500 ms




NOTES:

Russian video was nice actually.....best they've done for a while.Still had issues,over bright in parts,chroma too high in parts,last several mins look like from a lower Q sors....muxed too it.Theres a big ass watermark several times throughout and some slight camera movement.
Audio was nice for cam ...very nice.But like any cam audio as some issues ...

Video we opted to crop the borders that appeared.....lowered the chroma alot,altered the brightness and contrast to make bad look more real aswell as reducing the glares.
Also used as HQ smoother and slight tweak in the rgb colours and finally added some sharpness back to it.
Audio was nice so just synced it up too russian video ....needed 8 cuts due to missing secs here and there ....roughly 12 secs missing in total.

[img]image[/img]
[img]image[/img]
[img]image[/img]
[img]image[/img]
[img]image[/img]
Torrent downloaded from AhaShare.com.txt 58 B
Torrent downloaded from Demonoid.me.txt 46 B
Torrent downloaded from Extratorrent.com.txt 40 B
Gathering some info...

Register and log in Isohunt and see no captcha anymore!

4000 symbols left
Hash 82F4F29D8B0CF704566B7B5D2CCCB97B36A6D0D6

Related torrents for "Wrath Of The Titans 2012 CAM XViD - INSPiRAL"

Torrent search:

cam 2012