Romeo Santos Ft. Mario Domm - Rival (h264mp4)

Size 112.665 MB   10 seeders     Added 2012-04-02 02:40:46

Stream torrent
Starting‥ You need BitLord! Get it from BitLord.com
10
To download or stream you need BitLord. Visit them at BitLord.com
General
Format : MPEG-4
Format profile : Base Media
Codec ID : isom
File size : 107 MiB
Duration : 4mn 37s
Overall bit rate : 3 247 Kbps
Encoded date : UTC 2012-03-28 15:33:45
Tagged date : UTC 2012-03-28 15:33:45
Video
ID : 1
Format : AVC
Format/Info : Advanced Video Codec
Format profile : High@L3.0
Format settings, CABAC : Yes
Format settings, ReFrames : 2 frames
Codec ID : avc1
Codec ID/Info : Advanced Video Coding
Duration : 4mn 37s
Bit rate mode : Variable
Bit rate : 3 187 Kbps
Maximum bit rate : 6 436 Kbps
Width : 720 pixels
Height : 480 pixels
Display aspect ratio : 16:9
Original display aspect ratio : 16:9
Frame rate mode : Constant
Frame rate : 23.976 fps
Standard : NTSC
Color space : YUV
Chroma subsampling : 4:2:0
Bit depth : 8 bits
Scan type : Progressive
Bits/(Pixel*Frame) : 0.385
Stream size : 105 MiB (98%)
Audio
ID : 2
Format : AAC
Format/Info : Advanced Audio Codec
Format profile : LC
Codec ID : 40
Duration : 4mn 37s
Bit rate mode : Variable
Bit rate : 73.5 Kbps
Maximum bit rate : 86.4 Kbps
Channel(s) : 2 channels
Channel positions : Front: L R
Sampling rate : 44.1 KHz
Compression mode : Lossy
Stream size : 2.43 MiB (2%)
 
RomeoSantosFt.MarioDomm-Rival-musicvideos-hq.net.mp4 112.665 MB
Gathering some info...

Register and log in Isohunt and see no captcha anymore!

4000 symbols left
Hash 281BE9807AF06623FE4BF4A16A03F12E0E8558DD