Corman s World 2011 Alex Stapleton mkv

Size 1.448 GB   0 seeders     Added 2012-04-02 02:54:55

Stream torrent
Starting‥ You need BitLord! Get it from 1BitLord.com
To download or stream you need BitLord. Visit them at BitLord.com
Corman's World: Exploits of a Hollywood Rebel\r\n\r\nDirector: Alex Stapleton\r\nYear: 2011\r\nGenre: Documentary\r\nRuntime: 90 Minutes\r\n\r\nIMDb: 7.2/10 (316 users)\r\n\r\nSynopsis\r\n\r\n\r\nCORMAN'S WORLD: EXPLOITS OF A HOLLYWOOD REBEL is a tantalizing and star-studded tribute to Roger Corman, Hollywood's most prolific writer-director producer, and seminal influencing force in modern moviemaking over the last 60 years. Featuring interviews with Hollywood icons and cinematic luminaries, some who launched their careers within Corman's unforgettable world of filmmaking, including, Paul W.S. Anderson, Peter Bogdanovich, Robert DeNiro, Peter Fonda, Pam Grier, Ron Howard, Jack Nicholson, Eli Roth, Martin Scorcese, William Shatner and many others, this documentary chronicles how Corman created his cult film empire, one low-budget success at a time, capitalizing on undiscovered talent, and pushing the boundaries of independent filmmaking.\r\n\r\nDirector Alex Stapleton weaves archival footage following Roger's illustrious career: From his early days of genre-defining classics including the original Fast and Furious, the original Little Shop of Horrors, The Crybaby Killer, The Intruder, House of Usher, and The Wild Angels (which at that point in 1966 was his 100th film) -- with present day video of him and his wife Julie on location still at work as they continue to produce and distribute films outside the studio system: fast, cheap and out-of-this-world!\r\n\r\nMy rip. Many thanks to joemallon for providing DVD.\r\n\r\n\r\n\r\nSpecifications\r\n\r\n\r\nGeneral\r\nFormat : Matroska\r\nFile size : 1.35 GiB\r\nDuration : 1h 30mn\r\nOverall bit rate : 2 144 Kbps\r\nWriting application : HandBrake 0.9.5\r\nWriting library : libmkv 0.6.4.1\r\n\r\nVideo\r\nFormat : AVC\r\nFormat/Info : Advanced Video Codec\r\nFormat profile : High@L3.0\r\nFormat settings, CABAC : Yes\r\nFormat settings, ReFrames : 6 frames\r\nDuration : 1h 30mn\r\nBit rate : 1 653 Kbps\r\nWidth : 720 pixels\r\nHeight : 480 pixels\r\nDisplay aspect ratio : 16:9\r\nOriginal display aspect ratio : 16:9\r\nFrame rate mode : Variable\r\nFrame rate : 23.976 fps\r\nStandard : NTSC\r\nColor space : YUV\r\nChroma subsampling : 4:2:0\r\nBit depth : 8 bits\r\nScan type : Progressive\r\nBits/(Pixel*Frame) : 0.199\r\nStream size : 1.04 GiB (77%)\r\nWriting library : x264 core 112\r\n\r\nAudio\r\nFormat : AC-3\r\nFormat/Info : Audio Coding 3\r\nMode extension : CM (complete main)\r\nDuration : 1h 30mn\r\nBit rate mode : Constant\r\nBit rate : 448 Kbps\r\nChannel(s) : 6 channels\r\nChannel positions : Front: L C R, Side: L R, LFE\r\nSampling rate : 48.0 KHz\r\nBit depth : 16 bits\r\nCompression mode : Lossy\r\nStream size : 289 MiB (21%)\r\nLanguage : English
Corman's World - 2011 - Alex Stapleton.mkv 1.448 GB
Gathering some info...

Register and log in Isohunt and see no captcha anymore!

4000 symbols left
Hash 1B69EB07114093C0E4CEE74CC8843EC8F4245AD6

We have tons of cool stuff like this:

Torrent search:

2011