imdb
rating

5.9
There Be Dragons

There Be Dragons (2011)

Drama

Full description
quality   dvdrip bd x264 hd fullhd

There Be Dragons 2011 DVDRIP Xvid AC3 5 1 BHRG

Size 1.878 GB   0 seeders     Added 2012-04-03 02:49:47

Stream torrent
Starting‥ You need BitLord! Get it from BitLord.com
To download or stream you need BitLord. Visit them at BitLord.com
There Be Dragons 2011 DVDRIP Xvid AC3 5.1-BHRG\r\n\r\n\r\nFile size : 1.72 GiB\r\n\r\nDuration : 1h 57mn\r\n\r\nOverall bit rate : 2 108 Kbps\r\n\r\n\r\n\r\nVideo\r\n\r\nID : 0\r\n\r\nFormat : MPEG-4 Visual\r\n\r\nFormat profile : Advanced Simple@L5\r\n\r\nFormat settings, BVOP : 2\r\n\r\nFormat settings, QPel : No\r\n\r\nFormat settings, GMC : No warppoints\r\n\r\nFormat settings, Matrix : Default (H.263)\r\n\r\nCodec ID : XVID\r\n\r\nCodec ID/Hint : XviD\r\n\r\nDuration : 1h 57mn\r\n\r\nBit rate : 1 652 Kbps\r\n\r\nWidth : 720 pixels\r\n\r\nHeight : 304 pixels\r\n\r\nDisplay aspect ratio : 2.35:1\r\n\r\nFrame rate : 25.000 fps\r\n\r\nColor space : YUV\r\n\r\nChroma subsampling : 4:2:0\r\n\r\nBit depth : 8 bits\r\n\r\nScan type : Progressive\r\n\r\nCompression mode : Lossy\r\n\r\nBits/(Pixel*Frame) : 0.302\r\n\r\nStream size : 1.35 GiB (78%)\r\n\r\nWriting library : XviD 1.2.1 (UTC 2008-12-04)\r\n\r\n\r\n\r\nAudio\r\n\r\nID : 1\r\n\r\nFormat : AC-3\r\n\r\nFormat/Info : Audio Coding 3\r\n\r\nMode extension : CM (complete main)\r\n\r\nCodec ID : 2000\r\n\r\nDuration : 1h 56mn\r\n\r\nBit rate mode : Constant\r\n\r\nBit rate : 448 Kbps\r\n\r\nChannel(s) : 6 channels\r\n\r\nChannel positions : Front: L C R, Side: L R, LFE\r\n\r\nSampling rate : 48.0 KHz\r\n\r\nBit depth : 16 bits\r\n\r\nCompression mode : Lossy\r\n\r\nStream size : 375 MiB (21%)\r\n\r\nAlignment : Aligned on interleaves\r\n\r\nInterleave, duration : 64 ms (1.60 video frames)\r\n\r\nInterleave, preload duration : 192 ms\r\n\r\nTitle : VTS_01_1 T80 3_2ch 448Kbps DELAY 0ms_new\r\n\r\n\r\n\r\nIMDBhttp://akas.imdb.com/title/tt1316616/\r\n\r\n\r\n\r\nplot\r\n\r\nArising out of the horror of the Spanish Civil War, a candidate for canonization is investigated by a journalist who discovers his own estranged father had a deep, dark and devastating connection to the saint's life. \r\n\r\n\r\n\r\nSource DVD PAL -BHRG\r\n\r\n\r\n\r\nSample provided and hope few like it as much as i did, size slightly larger as per QF i like for 5.1 if ya dont understand, then move on folks!!!
There Be Dragons 2010 DVDRIP Xvid AC3-BHRG.avi 1.849 GB
There Be Dragons 2011 DVDRIP Xvid AC3-BHRG sample.avi 28.527 MB
Gathering some info...

Register and log in Isohunt and see no captcha anymore!

4000 symbols left
Hash 8F8824A42BEE01DB5550146148432BBFA9653ED3

Related torrents for "There Be Dragons 2011 DVDRIP Xvid AC3 5 1 BHRG"

Torrent search:

dvdrip 2011