David Guetta - The Alphabeat (h264mp4)

Size 64.249 MB   0 seeders     Added 2012-04-06 02:36:43

Stream torrent
Starting‚Ä• You need BitLord! Get it from 1BitLord.com
To download or stream you need BitLord. Visit them at BitLord.com
General
Format : MPEG-4
Format profile : Base Media
Codec ID : isom
File size : 61.3 MiB
Duration : 3mn 47s
Overall bit rate : 2 261 Kbps
Encoded date : UTC 2012-04-04 21:39:34
Tagged date : UTC 2012-04-04 21:39:34
Video
ID : 1
Format : AVC
Format/Info : Advanced Video Codec
Format profile : High@L3.0
Format settings, CABAC : Yes
Format settings, ReFrames : 2 frames
Codec ID : avc1
Codec ID/Info : Advanced Video Coding
Duration : 3mn 47s
Bit rate mode : Variable
Bit rate : 2 171 Kbps
Maximum bit rate : 5 454 Kbps
Width : 720 pixels
Height : 480 pixels
Display aspect ratio : 16:9
Original display aspect ratio : 16:9
Frame rate mode : Constant
Frame rate : 25.000 fps
Standard : NTSC
Color space : YUV
Chroma subsampling : 4:2:0
Bit depth : 8 bits
Scan type : Progressive
Bits/(Pixel*Frame) : 0.251
Stream size : 59.3 MiB (97%)
Audio
ID : 2
Format : AAC
Format/Info : Advanced Audio Codec
Format profile : LC
Codec ID : 40
Duration : 3mn 47s
Bit rate mode : Variable
Bit rate : 66.15 Kbps
Maximum bit rate : 77.0 Kbps
Channel(s) : 2 channels
Channel positions : Front: L R
Sampling rate : 44.1 KHz
Compression mode : Lossy
Stream size : 1.76 MiB (3%)
 
DavidGuetta-TheAlphabeat-musicvideos-hq.net.mp4 64.249 MB
Gathering some info...

Register and log in Isohunt and see no captcha anymore!

4000 symbols left
Hash 13179C1A2FA0CBAF6A34300CA3F970C81C55FAC2