The Deep Blue Sea (2012) R5 LiNE XviD-REFiLL

Size 803.781 MB   0 seeders     Added 2012-04-06 02:51:39

Stream torrent
Starting‚Ä• You need BitLord! Get it from BitLord.com
To download or stream you need BitLord. Visit them at BitLord.com
The Deep Blue Sea (2012) R5 LiNE XviD-REFiLL\r\n\r\n\r\n\r\nimage\r\n\r\n
Shot at 2012-03-24\r\n\r\n\r\nPLOT:\r\nThe Deep Blue Sea\r\n\r\nThe wife of a British Judge is caught in a self-\r\n\r\ndestructive love affair with a Royal Air Force pilot.\r\n\r\nDirector: Terence Davies\r\nWriters: Terence Davies (screenplay), Terence \r\n\r\nRattigan (play)\r\nStars: Rachel Weisz, Tom Hiddleston and Ann Mitchell\r\n\r\nGenres: Drama | Romance\r\n\r\nRuntime: 98 min\r\nFile Size: 766 MB\r\n\r\nFormat : AVI\r\nFormat/Info : Audio Video Interleave\r\nFormat profile : OpenDML\r\nOverall bit rate : 1 799 Kbps\r\nWriting application : VirtualDubMod 1.5.10.2 \r\n\r\n(build 2542/release)\r\nWriting library : VirtualDubMod build \r\n\r\n2542/release\r\nCopyright : REFiLL\r\nVideo\r\nID : 0\r\nFormat : MPEG-4 Visual\r\nFormat profile : AdvancedSimple@L5\r\nFormat settings, BVOP : Yes\r\nFormat settings, QPel : No\r\nFormat settings, GMC : No warppoints\r\nFormat settings, Matrix : Custom\r\nCodec ID : XVID\r\nCodec ID/Hint : XviD\r\nBit rate : 1 603 Kbps\r\nWidth : 720 pixels\r\nHeight : 304 pixels\r\nDisplay aspect ratio : 2.35:1\r\nFrame rate : 23.976 fps\r\nResolution : 24 bits\r\nColorimetry : 4:2:0\r\nScan type : Progressive\r\nBits/(Pixel*Frame) : 0.305\r\nStream size : 1.26 GiB (89%)\r\nWriting library : XviD 58\r\n\r\nAudio\r\nID : 1\r\nFormat : MPEG Audio\r\nFormat version : Version 1\r\nFormat profile : Layer 3\r\nCodec ID : 50\r\nCodec ID/Hint : MP1\r\nBit rate mode : Constant\r\nBit rate : 192 Kbps\r\nChannel(s) : 2 channels\r\nSampling rate : 48.0 KHz\r\nResolution : 16 bits\r\nStream size : 155 MiB (11%)\r\nAlignment : Aligned on interleaves\r\nInterleave, duration : 493 ms (11.82 video \r\n\r\nframes)\r\nInterleave, preload duration : 216 ms\r\n\r\n\r\nNOTE:\r\n\r\nRecommended player for all our movies\r\nhttp://www.videolan.org/vlc/\r\n\r\nREMEMBER: GOD DEMANDS LOVE,SEEDS,PEERS \r\n\r\nAND A FAIR TORRENT RATIO
SCREENCAPS.jpg 206.015 KB
Subs ENG.srt 82.896 KB
The Deep Blue Sea (2012) R5 LiNE XviD-REFiLL.avi 803.486 MB
Gathering some info...

Register and log in Isohunt and see no captcha anymore!

4000 symbols left
Hash 3D2DA485C29A36070E85412011C4E0E9E969F2A7