October Baby (2012) R5 LiNE XviD-REFiLL

Size 821.349 MB   0 seeders     Added 2012-04-06 02:51:42

Stream torrent
Starting‥ You need BitLord! Get it from 1BitLord.com
To download or stream you need BitLord. Visit them at BitLord.com
October Baby (2012) R5 LiNE XviD-REFiLL\r\n\r\n\r\n\r\nimage/\r\nhttp://img26.imageshack.us/img26/5094/octoberbaby.j\r\n\r\npg\r\n\r\n
Shot at 2012-03-24\r\n\r\n\r\nPlot:\r\nOctober Baby\r\n\r\nAs the curtain rises, Hannah hesitantly steps onto the \r\n\r\nstage for her theatrical debut in college. Yet before she \r\n\r\ncan utter her first lines, Hannah-unscripted-collapses \r\n\r\nin front of the stunned audience. After countless \r\n\r\nmedical tests, all signs point to one underlying factor: \r\n\r\nHannah's difficult birth. This revelation is nothing \r\n\r\ncompared to what she then learns from her parents: \r\n\r\nshe was actually adopted ... after a failed abortion \r\n\r\nattempt. Bewildered, angered, and confused, Hannah \r\n\r\nturns for support to Jason, her oldest friend. \r\n\r\nEncouraged by his adventurous spirit, Hannah joins his \r\n\r\ngroup of friends on a Spring Break road trip, \r\n\r\nembarking on a journey to discover her hidden past ... \r\n\r\nand find hope for her unknown future. In the midst of \r\n\r\nher incredible journey, Hannah learns that every life is \r\n\r\nbeautiful.\r\n\r\nDirectors: Andrew Erwin, Jon Erwin\r\nWriters: Cecil Stokes (story), Jon Erwin (story), and 3 \r\n\r\nmore credits »\r\nStars: Rachel Hendrix, Jason Burkey and John \r\n\r\nSchneider\r\n\r\nGenres: Drama\r\n\r\nRuntime: 107 min\r\nFile Size: 783 MB\r\n\r\nFormat : AVI\r\nFormat/Info : Audio Video Interleave\r\nFormat profile : OpenDML\r\nOverall bit rate : 1 799 Kbps\r\nWriting application : VirtualDubMod 1.5.10.2 \r\n\r\n(build 2542/release)\r\nWriting library : VirtualDubMod build \r\n\r\n2542/release\r\nCopyright : REFiLL\r\nVideo\r\nID : 0\r\nFormat : MPEG-4 Visual\r\nFormat profile : AdvancedSimple@L5\r\nFormat settings, BVOP : Yes\r\nFormat settings, QPel : No\r\nFormat settings, GMC : No warppoints\r\nFormat settings, Matrix : Custom\r\nCodec ID : XVID\r\nCodec ID/Hint : XviD\r\nBit rate : 1 603 Kbps\r\nWidth : 720 pixels\r\nHeight : 304 pixels\r\nDisplay aspect ratio : 2.35:1\r\nFrame rate : 23.976 fps\r\nResolution : 24 bits\r\nColorimetry : 4:2:0\r\nScan type : Progressive\r\nBits/(Pixel*Frame) : 0.305\r\nStream size : 1.26 GiB (89%)\r\nWriting library : XviD 58\r\n\r\nAudio\r\nID : 1\r\nFormat : MPEG Audio\r\nFormat version : Version 1\r\nFormat profile : Layer 3\r\nCodec ID : 50\r\nCodec ID/Hint : MP1\r\nBit rate mode : Constant\r\nBit rate : 192 Kbps\r\nChannel(s) : 2 channels\r\nSampling rate : 48.0 KHz\r\nResolution : 16 bits\r\nStream size : 155 MiB (11%)\r\nAlignment : Aligned on interleaves\r\nInterleave, duration : 493 ms (11.82 video \r\n\r\nframes)\r\nInterleave, preload duration : 216 ms\r\n\r\n\r\nNOTE:\r\n\r\nRecommended player for all our movies\r\nhttp://www.videolan.org/vlc/\r\n\r\nREMEMBER: GOD DEMANDS LOVE,SEEDS,PEERS \r\n\r\nAND A FAIR TORRENT RATIO
October Baby (2012) R5 LiNE XviD-REFiLL.avi 810.626 MB
October Baby (2012) R5 LiNE XviD-REFiLL.nfo 4.859 KB
october baby sample.avi 10.354 MB
Gathering some info...

Register and log in Isohunt and see no captcha anymore!

4000 symbols left
Hash 04B712A4C5100E6A2E0DB955955CF7C8B68D512A