Wrath of the Titans (2012) R5 LiNE XviD-REFiLL

Size 800.246 MB   0 seeders     Added 2012-04-06 02:56:05

Stream torrent
Starting‥ You need BitLord! Get it from BitLord.com
To download or stream you need BitLord. Visit them at BitLord.com
Wrath of the Titans (2012) R5 LiNE XviD-REFiLL\r\n\r\n\r\n\r\nimage\r\n\r\n
Shot \r\n\r\nat 2012-03-24\r\n\r\n\r\nPlot:\r\nWrath of the Titans\r\n\r\nA decade after his heroic defeat of the monstrous \r\n\r\nKraken, Perseus-the demigod son of Zeus-is \r\n\r\nattempting to live a quieter life as a village fisherman \r\n\r\nand the sole parent to his 10-year old son, Helius. \r\n\r\nMeanwhile, a struggle for supremacy rages between \r\n\r\nthe gods and the Titans. Dangerously weakened by \r\n\r\nhumanity's lack of devotion, the gods are losing control \r\n\r\nof the imprisoned Titans and their ferocious leader, \r\n\r\nKronos, father of the long-ruling brothers Zeus, Hades \r\n\r\nand Poseidon. The triumvirate had overthrown their \r\n\r\npowerful father long ago, leaving him to rot in the \r\n\r\ngloomy abyss of Tartarus, a dungeon that lies deep \r\n\r\nwithin the cavernous underworld. Perseus cannot \r\n\r\nignore his true calling when Hades, along with Zeus' \r\n\r\ngodly son, Ares (Edgar Ramírez), switch loyalty and \r\n\r\nmake a deal with Kronos to capture Zeus. The Titans' \r\n\r\nstrength grows stronger as Zeus' remaining godly \r\n\r\npowers are siphoned, and hell is unleashed on earth. \r\n\r\nEnlisting the help of the warrior Queen Andromeda \r\n\r\n(Rosamund Pike), Poseidon's demigod son, Argenor \r\n\r\n(Toby Kebbell), and fallen god Hephaestus (Bill Nighy), \r\n\r\nPerseus bravely embarks on a treacherous quest into \r\n\r\nthe underworld to rescue Zeus, overthrow the Titans \r\n\r\nand save mankind.\r\n\r\nDirector: Jonathan Liebesman\r\nWriters: Dan Mazeau (screenplay), David Johnson \r\n\r\n(screenplay), and more.\r\nStars: Sam Worthington, Liam Neeson and Rosamund \r\n\r\nPike\r\n\r\nGenres: Action | Adventure | Fantasy\r\n\r\nRuntime: 99 min\r\nFile Size: 763 MB\r\n\r\nFormat : AVI\r\nFormat/Info : Audio Video Interleave\r\nFormat profile : OpenDML\r\nOverall bit rate : 1 799 Kbps\r\nWriting application : VirtualDubMod 1.5.10.2 \r\n\r\n(build 2542/release)\r\nWriting library : VirtualDubMod build \r\n\r\n2542/release\r\nCopyright : REFiLL\r\nVideo\r\nID : 0\r\nFormat : MPEG-4 Visual\r\nFormat profile : AdvancedSimple@L5\r\nFormat settings, BVOP : Yes\r\nFormat settings, QPel : No\r\nFormat settings, GMC : No warppoints\r\nFormat settings, Matrix : Custom\r\nCodec ID : XVID\r\nCodec ID/Hint : XviD\r\nBit rate : 1 603 Kbps\r\nWidth : 720 pixels\r\nHeight : 304 pixels\r\nDisplay aspect ratio : 2.35:1\r\nFrame rate : 23.976 fps\r\nResolution : 24 bits\r\nColorimetry : 4:2:0\r\nScan type : Progressive\r\nBits/(Pixel*Frame) : 0.305\r\nStream size : 1.26 GiB (89%)\r\nWriting library : XviD 58\r\n\r\nAudio\r\nID : 1\r\nFormat : MPEG Audio\r\nFormat version : Version 1\r\nFormat profile : Layer 3\r\nCodec ID : 50\r\nCodec ID/Hint : MP1\r\nBit rate mode : Constant\r\nBit rate : 192 Kbps\r\nChannel(s) : 2 channels\r\nSampling rate : 48.0 KHz\r\nResolution : 16 bits\r\nStream size : 155 MiB (11%)\r\nAlignment : Aligned on interleaves\r\nInterleave, duration : 493 ms (11.82 video \r\n\r\nframes)\r\nInterleave, preload duration : 216 ms\r\n\r\n\r\nNOTE:\r\n\r\nRecommended player for all our movies\r\nhttp://www.videolan.org/vlc/\r\n\r\nREMEMBER: GOD DEMANDS LOVE,SEEDS,PEERS \r\n\r\nAND A FAIR TORRENT RATIO
Subs ENG.srt 82.896 KB
Torrent downloaded from Demonoid.me.txt 46 B
Torrent Downloaded From ExtraTorrent.com.txt 40 B
Gathering some info...

Register and log in Isohunt and see no captcha anymore!

4000 symbols left
Hash 31808AECF933019EAF2825733890E4895175C8F9