imdb
rating

7.7
Cast Away

Cast Away (2000)

Adventure, Drama

Full description
quality   hd bd x264 dvdrip h264 dvd fullhd

Cast Away 2000 DVDrip English Klam

Size 2.273 GB   0 seeders     Added 2012-04-06 20:41:09

Stream torrent
Starting‥ You need BitLord! Get it from BitLord.com
To download or stream you need BitLord. Visit them at BitLord.com
[img] image[/img]

With: Tom Hanks, Helen Hunt and Wilson the Volleyball

Chuck Noland is een manager bij FEDEx. Boven de Stille Oceaan crasht zijn vliegtuig. Hij overleeft de ramp en spoelt aan op een onbewoond eiland. Terwijl zijn naasten in de veronderstelling leven dat hij dood is, bedenkt hij manieren om te overleven en te ontsnappen.

A FedEx executive must transform himself physically and emotionally to survive a crash landing on a deserted island. 

http://www.imdb.com/title/tt0162222

[COLOR=#3300FF]------------------------ Dutch Friends ------------------------
---------------------------------------------------------------
- Bezoek ook eens mijn vrienden op:  http://www.Film-Test.nl --
----- voor mijn Nederlandse Sync. ondertitels ---- en meer ----
------- http://www.Film-Test.nl ---- voor Films en meer -------
---------------------------------------------------------------[/COLOR]

General:

Complete name                    : Cast Away\Cast Away.avi
Format                           : AVI
Format/Info                      : Audio Video Interleave
File size                        : 2.12 GiB
Duration                         : 2h 17mn
Overall bit rate                 : 2 197 Kbps

Video:

Format                           : MPEG-4 Visual
Format profile                   : Simple@L3
Format settings, BVOP            : No
Format settings, QPel            : No
Format settings, GMC             : No warppoints
Format settings, Matrix          : Default (H.263)
Codec ID                         : XVID
Codec ID/Hint                    : XviD
Duration                         : 2h 17mn
Bit rate                         : 1 738 Kbps
Width                            : 652 pixels
Height                           : 352 pixels
Display aspect ratio             : 1.852
Frame rate                       : 25.000 fps
Color space                      : YUV
Chroma subsampling               : 4:2:0
Bit depth                        : 8 bits
Scan type                        : Progressive
Compression mode                 : Lossy
Bits/(Pixel*Frame)               : 0.303
Stream size                      : 1.67 GiB (79%)
Writing library                  : XviD 1.1.2 (UTC 2006-11-01)

Audio:

Format                           : AC-3
Format/Info                      : Audio Coding 3
Mode extension                   : CM (complete main)
Codec ID                         : 2000
Duration                         : 2h 17mn
Bit rate mode                    : Constant
Bit rate                         : 448 Kbps
Channel(s)                       : 6 channels
Channel positions                : Front: L C R, Side: L R, LFE
Sampling rate                    : 48.0 KHz
Bit depth                        : 16 bits
Compression mode                 : Lossy
Stream size                      : 442 MiB (20%)
Alignment                        : Aligned on interleaves
Interleave, duration             : 32 ms (0.80 video frame)
Cast Away/Cast Away.avi 2.272 GB
Cast Away/Cover/Cast Away.jpg 192.202 KB
Cast Away/www.Film-Test.nl.JPG 34.175 KB
Gathering some info...

Register and log in Isohunt and see no captcha anymore!

4000 symbols left
Hash f7d11b45317584de35b614a47be64388f2a830db

Related torrents for "Cast Away 2000 DVDrip English Klam"

Torrent search:

dvdrip english 2000