imdb
rating

6.3
Young Adult

Young Adult (2011)

Comedy, Drama, Romance

Full description
quality   dvdrip dvd cam

Young Adult 2011 720p BDRip XviD ac3 (avi) [greyshadow]-=-{{T M

Size 4.222 GB   0 seeders     Added 2012-04-06 23:41:13

Stream torrent
Starting‥ You need BitLord! Get it from BitLord.com
To download or stream you need BitLord. Visit them at BitLord.com
[img]image[/img]

[img]image[/img]

[img]image[/img]

FILM TITLE: [COLOR=#DD0000]Young Adult (2011)[/COLOR]

Genre:   Comedy | Drama  

Rated R for language and some sexual content

Release:   16 December 2011 (USA)

Director: Jason Reitman

Writer: Diablo Cody

Stars: Charlize Theron, Patrick Wilson and Patton Oswalt

Country:  USA

Language: English

Plot:
Soon after her divorce, a fiction writer returns to her home in small-town Minnesota, 
looking to rekindle a romance with her ex-boyfriend, who is now happily married 
and has a newborn daughter.

IMDB Rating: 6.7/10 from 18,042 users   Metascore: 71/100

http://www.imdb.com/title/tt1625346/

http://www.youtube.com/watch?v=Ar_-v7dEEoo

[img]image[/img]

[url=http://www.imagezon3.com/images/Kw13.png][img]image[/img][/url]
[url=http://www.imagezon3.com/images/DlswS.png][img]image[/img][/url]
[url=http://www.imagezon3.com/images/BnRo1.png][img]image[/img][/url]
[url=http://www.imagezon3.com/images/SKJv.png][img]image[/img][/url]
[url=http://www.imagezon3.com/images/OHlnN.png][img]image[/img][/url]

[img]image[/img]

General
Complete name                            : Young Adult 2011 720p BDRip XviD ac3 (avi) [greyshadow]-=-{{T.M.R.G}}.avi
Format                                   : AVI
Format/Info                              : Audio Video Interleave
Format profile                           : OpenDML
File size                                : 3.89 GiB
Duration                                 : 1h 33mn
Overall bit rate                         : 5942 Kbps
Writing library                          : VirtualDub build 32842/release

Video
ID                                       : 0
Format                                   : MPEG-4 Visual
Format profile                           : Simple@L5
Format settings, BVOP                    : No
Format settings, QPel                    : No
Format settings, GMC                     : No warppoints
Format settings, Matrix                  : Default (H.263)
Codec ID                                 : XVID
Codec ID/Hint                            : XviD
Duration                                 : 1h 33mn
Bit rate                                 : 5292 Kbps
Width                                    : 1280 pixels
Height                                   : 720 pixels
Display aspect ratio                     : 16:9
Frame rate                               : 23.976 fps
Color space                              : YUV
Chroma subsampling                       : 4:2:0
Bit depth                                : 8 bits
Scan type                                : Progressive
Compression mode                         : Lossy
Bits/(Pixel*Frame)                       : 0.240
Stream size                              : 3.46 GiB (89%)
Writing library                          : XviD 64

Audio
ID                                       : 1
Format                                   : AC-3
Format/Info                              : Audio Coding 3
Mode extension                           : CM (complete main)
Codec ID                                 : 2000
Duration                                 : 1h 33mn
Bit rate mode                            : Constant
Bit rate                                 : 640 Kbps
Channel(s)                               : 6 channels
Channel positions                        : Front: L C R, Side: L R, LFE
Sampling rate                            : 48.0 KHz
Bit depth                                : 16 bits
Compression mode                         : Lossy
Stream size                              : 429 MiB (11%)
Alignment                                : Aligned on interleaves
Interleave, duration                     : 42 ms (1.00 video frame)
Interleave, preload duration             : 512 ms

[img]image[/img]

Young Adult 2011 BluRay 1080p AVC DTS-HD MA5.1-softfeng@CHDBits (34.43GB)

Thanks: softfeng (chdbits.org)


I provide a small sample, so please download this to check your 
compatibility first if you are unsure.

We are the new TorrentMafia release group, watch out for our encodes, they will
be everywhere, come and be a member of the Mafiose.

We allow transfer of our encodes to any site, dont change the description or title, 
or remove any files.  

[URL=https://www.facebook.com/groups/torrentmafia/][IMG]image[/IMG][/URL]


Hash: 5D4D3CC3D8928902B53F1CEA15F2AB2C0F7032C6

[CODE]Trackers:
http://fr33dom.h33t.com:3310/announce
http://tracker.torrent.to:2710/announce
udp://tracker.1337x.org:80/announce
udp://tracker.openbittorrent.com:80/announce[/CODE]

[url=http://www.torrent-stats.info][img]image[/img][/url]

[img]image[/img]
h33t, 1337x, demonoid, extratorrent, tpb, darkside, monova, blazinseedboxes.
Winker, noir, MXMG, westy, and to many many others who remain p2p and true to the faith.

[img]image[/img]
Young Adult 2011 720p BDRip XviD ac3 (avi) [greyshadow]-=-{{T.M.R.G}}/(SAMPLE) Young Adult 2011.avi 48.716 MB
Young Adult 2011 720p BDRip XviD ac3 (avi) [greyshadow]-=-{{T.M.R.G}}/Torrentmafia encoded by txt page.nfo 93 B
Young Adult 2011 720p BDRip XviD ac3 (avi) [greyshadow]-=-{{T.M.R.G}}/Young Adult 2011 720p BDRip XviD ac3 (avi) [greyshadow]-=-{{T.M.R.G}}.txt 5.053 KB
Gathering some info...

Register and log in Isohunt and see no captcha anymore!

4000 symbols left
Hash 5d4d3cc3d8928902b53f1cea15f2ab2c0f7032c6

Related torrents for "Young Adult 2011 720p BDRip XviD ac3 (avi) [greyshadow]-=-{{T M"

Torrent search:

hd bd 2011