Destiny

Destiny (1957)

Documentary

Full description

Inna Wow (Official Video) [1080p Full HD]DeStInY ShInE

Size 226.394 MB   8 seeders     Added 2012-04-07 02:37:10

Stream torrent
Starting‥ You need BitLord! Get it from BitLord.com
To download or stream you need BitLord. Visit them at BitLord.com
Inna – Wow (Official Video) [1080p Full HD]~~~DeStInY_ShInE\r\n\r\n[URL=http://nimga.com/v/HyQP5][IMG]image[/IMG][/URL]\r\n\r\nGeneral\r\n\r\nFormat                                   : MPEG-4\r\nFormat profile                           : Base Media / Version 2\r\nCodec ID                                 : mp42\r\nFile size                                : 216 MiB\r\nDuration                                 : 4mn 59s\r\nOverall bit rate mode                    : Variable\r\nOverall bit rate                         : 6 056 Kbps\r\n\r\n\r\nVideo\r\nID                                       : 1\r\nFormat                                   : AVC\r\nFormat/Info                              : Advanced Video Codec\r\nFormat profile                           : High@L4.0\r\nFormat settings, CABAC                   : Yes\r\nFormat settings, ReFrames                : 1 frame\r\nCodec ID                                 : avc1\r\nCodec ID/Info                            : Advanced Video Coding\r\nDuration                                 : 4mn 59s\r\nBit rate                                 : 5 901 Kbps\r\nMaximum bit rate                         : 10.7 Mbps\r\nWidth                                    : 1 920 pixels\r\nHeight                                   : 1 080 pixels\r\nDisplay aspect ratio                     : 16:9\r\nFrame rate mode                          : Constant\r\nFrame rate                               : 25.000 fps\r\nColor space                              : YUV\r\nChroma subsampling                       : 4:2:0\r\nBit depth                                : 8 bits\r\nScan type                                : Progressive\r\nBits/(Pixel*Frame)                       : 0.114\r\nStream size                              : 210 MiB (97%)\r\n\r\n\r\nAudio\r\nID                                       : 2\r\nFormat                                   : AAC\r\nFormat/Info                              : Advanced Audio Codec\r\nFormat profile                           : LC\r\nCodec ID                                 : 40\r\nDuration                                 : 4mn 59s\r\nBit rate mode                            : Variable\r\nBit rate                                 : 152 Kbps\r\nMaximum bit rate                         : 235 Kbps\r\nChannel(s)                               : 2 channels\r\nChannel positions                        : Front: L R\r\nSampling rate                            : 44.1 KHz\r\nCompression mode                         : Lossy\r\nStream size                              : 5.41 MiB (3%)\r\n\r\n\r\nIf You Like My Post Then Please Visit :-\r\n\r\n[URL=http://nimga.com/v/ZMpRK][IMG]image[/IMG][/URL]\r\n\r\nFacebook Group :- [url]http://www.facebook.com/groups/299815433423895/[/url]\r\n\r\nFacebook Page :-  [url]http://www.facebook.com/pages/DeStInY_ShInE-ToRReNtS-/280217118719051[/url]\r\n\r\n[URL=http://nimga.com/v/DLipN][IMG]image[/IMG][/URL]\r\n\r\n[URL=http://nimga.com/v/JSmPe][IMG]image[/IMG][/URL]\r\n\r\n[URL=http://nimga.com/v/KuuUa][IMG]image[/IMG][/URL]\r\n\r\n[URL=http://nimga.com/v/0CdKc][IMG]image[/IMG][/URL]\r\n\r\n[URL=http://nimga.com/v/694SW][IMG]image[/IMG][/URL]\r\n\r\n[URL=http://nimga.com/v/ys9Oi][IMG]image[/IMG][/URL]\r\n\r\n\r\n[URL=http://nimga.com/v/8VqEF][IMG]image[/IMG][/URL]\r\n[URL=http://nimga.com/v/mIArO][IMG]image[/IMG][/URL]\r\n[URL=http://nimga.com/v/RWRbx][IMG]image[/IMG][/URL]\r\n[URL=http://nimga.com/v/NQU3Z][IMG]image[/IMG][/URL]
Inna – Wow (Official Video) [1080p Full HD]~~~DeStInY_ShInE.MP4 226.393 MB
If You Like My Work Then Like Me On Facebook.txt 270 B
Torrent Downloaded from kat.ph.txt 42 B
Gathering some info...

Register and log in Isohunt and see no captcha anymore!

4000 symbols left
Hash B3BA4CDD71EA8F6876DE9679387DCB9E4C4ED05B

Related torrents for "Inna Wow (Official Video) [1080p Full HD]DeStInY ShInE"

Torrent search:

hd fullhd