Enter Nowhere 2011 DvDRip XviD Ac3 Feel Free avi

Size 990.691 MB   0 seeders     Added 2012-04-08 02:51:41

Stream torrent
Starting‥ You need BitLord! Get it from BitLord.com
To download or stream you need BitLord. Visit them at BitLord.com
Genre:Horror | Mystery | Thriller\r\nLanguage:English\r\nIMDb:http://www.imdb.com/title/tt1631707/\r\nSourceVD Thanks!\r\nEncoder:Tony\r\n\r\nFormat : AVI\r\nFormat/Info : Audio Video Interleave\r\nFile size : 945 MiB\r\nDuration : 1h 29mn\r\nOverall bit rate : 1 477 Kbps\r\n\r\nVideo\r\nID : 0\r\nFormat : MPEG-4 Visual\r\nFormat profile : Advanced Simple@L5\r\nFormat settings, BVOP : 1\r\nFormat settings, QPel : No\r\nFormat settings, GMC : No warppoints\r\nFormat settings, Matrix : Default (H.263)\r\nCodec ID : XVID\r\nCodec ID/Hint : XviD\r\nDuration : 1h 29mn\r\nBit rate : 1 019 Kbps\r\nWidth : 640 pixels\r\nHeight : 272 pixels\r\nDisplay aspect ratio : 2.35:1\r\nFrame rate : 23.976 fps\r\nColor space : YUV\r\nChroma subsampling : 4:2:0\r\nBit depth : 8 bits\r\nScan type : Progressive\r\nCompression mode : Lossy\r\nBits/(Pixel*Frame) : 0.244\r\nStream size : 652 MiB (69%)\r\nWriting library : XviD 1.2.1 (UTC 2008-12-04)\r\n\r\nAudio\r\nID : 1\r\nFormat : AC-3\r\nFormat/Info : Audio Coding 3\r\nMode extension : CM (complete main)\r\nCodec ID : 2000\r\nDuration : 1h 29mn\r\nBit rate mode : Constant\r\nBit rate : 448 Kbps\r\nChannel(s) : 6 channels\r\nChannel positions : Front: L C R, Side: L R, LFE\r\nSampling rate : 48.0 KHz\r\nBit depth : 16 bits\r\nCompression mode : Lossy\r\nStream size : 287 MiB (30%)\r\nAlignment : Aligned on interleaves\r\nInterleave, duration : 42 ms (1.00 video frame)\r\nInterleave, preload duration : 512 ms\r\n\r\n\r\nPlot:\r\nThree strangers arrive one by one at a mysterious cabin in the middle of nowhere only to learn they've been brought together for a reason. \r\n\r\nn	\r\n\r\n\r\n\r\n\r\nGenre:Horror | Mystery | Thriller\r\nLanguage:English\r\nIMDb:http://www.imdb.com/title/tt1631707/\r\nSourceVD Thanks!\r\nEncoder:Tony\r\n\r\nFormat : AVI\r\nFormat/Info : Audio Video Interleave\r\nFile size : 945 MiB\r\nDuration : 1h 29mn\r\nOverall bit rate : 1 477 Kbps\r\n\r\nVideo\r\nID : 0\r\nFormat : MPEG-4 Visual\r\nFormat profile : Advanced Simple@L5\r\nFormat settings, BVOP : 1\r\nFormat settings, QPel : No\r\nFormat settings, GMC : No warppoints\r\nFormat settings, Matrix : Default (H.263)\r\nCodec ID : XVID\r\nCodec ID/Hint : XviD\r\nDuration : 1h 29mn\r\nBit rate : 1 019 Kbps\r\nWidth : 640 pixels\r\nHeight : 272 pixels\r\nDisplay aspect ratio : 2.35:1\r\nFrame rate : 23.976 fps\r\nColor space : YUV\r\nChroma subsampling : 4:2:0\r\nBit depth : 8 bits\r\nScan type : Progressive\r\nCompression mode : Lossy\r\nBits/(Pixel*Frame) : 0.244\r\nStream size : 652 MiB (69%)\r\nWriting library : XviD 1.2.1 (UTC 2008-12-04)\r\n\r\nAudio\r\nID : 1\r\nFormat : AC-3\r\nFormat/Info : Audio Coding 3\r\nMode extension : CM (complete main)\r\nCodec ID : 2000\r\nDuration : 1h 29mn\r\nBit rate mode : Constant\r\nBit rate : 448 Kbps\r\nChannel(s) : 6 channels\r\nChannel positions : Front: L C R, Side: L R, LFE\r\nSampling rate : 48.0 KHz\r\nBit depth : 16 bits\r\nCompression mode : Lossy\r\nStream size : 287 MiB (30%)\r\nAlignment : Aligned on interleaves\r\nInterleave, duration : 42 ms (1.00 video frame)\r\nInterleave, preload duration : 512 ms\r\n\r\n\r\nPlot:\r\nThree strangers arrive one by one at a mysterious cabin in the middle of nowhere only to learn they've been brought together for a reason.\r\n\r\n\r\nGreets:\r\n\r\nCRYS,INSPiRAL,IMAGINE,LKRG,ADTRG,FXG,3Li,FLAWL3SS,TA,iLLUSiON,EMBER,HOPE,GooN,BBnRG,NOGRP,ETRG,BHRG,iLLUMiNATi,MiSTERE.ViSiON,DTRG SAFCuk009,LU,TheFalcon007,MYSTiC,PrisM,Noir,WBZ,LAP,Rx,Kingdom,SAFCuk009+Fabreezy,HDLiTE,TWiZTED,ETRG.ELEKTRI4KA,MAGNAT,CM8\r\nAnd to all the other p2p grps past and present
Enter Nowhere 2011 DvDRip XviD Ac3 Feel-Free.avi 990.691 MB
Gathering some info...

Register and log in Isohunt and see no captcha anymore!

4000 symbols left
Hash 4219E254BA8945BD0046C1E2A24BAB2EFE6524DB