Pirati

Size 896.493 MB   0 seeders     Added 2012-04-08 02:57:01

Stream torrent
Starting‥ You need BitLord! Get it from 1BitLord.com
To download or stream you need BitLord. Visit them at BitLord.com
Pirati Briganti Da Strapazzo (2012) iTALIAN.MD.CAM.XviD-deep\r\n\r\n[img]image[/img]\r\n\r\nPirati! Briganti Da Strapazzo\r\n\r\nTITOLO ORIGINALE: The Pirates! Band of Misfits\r\nUSCITA CINEMA: 04/04/2012\r\nGENERE: Animazione, Avventura\r\nPAESE: Gran Bretagna, USA 2012\r\nDURATA: 88 Min\r\nFORMATO: Colore 3D\r\nREGIA: Peter Lord, Jeff Newitt\r\nSCENEGGIATURA: Gideon Defoe\r\nATTORI: Hugh Grant, Salma Hayek, Jeremy Piven, Imelda Staunton, David Tennant, Brendan Gleeson, Ashley Jensen, Brian Blessed, Russell Tovey, Martin Freeman, Christian De Sica, Luciana Littizzetto\r\nFOTOGRAFIA: Frank Passingham\r\nMUSICHE: Theodore Shapiro\r\nPRODUZIONE: Aardman Animations, Sony Pictures Animation\r\nDISTRIBUZIONE: Warner Bros. Pictures Italia\r\n\r\n\r\nTRAMA\r\nIl Capitano è, suo malgrado e nonostante la lussureggiante barba, è uno dei pirati meno temibili dei sette mari. Ma lui e la sua fedelissima ciurma hanno un sogno: sconfiggere i loro rivali Black Bellamy e Cutlass Liz nel \"Pirate of the Year Award\". Per raggiungere il loro scopo s'imbarcheranno in imprese che li porteranno dalle spiaggie della Blood Island fino alle nebbiose via della Londra vittoriana, e si imbatteranno inoltre nella regina Vittoria e in un giovane Charles Darwin...\r\n\r\nSCREEN\r\n[img]image[/img]\r\n[img]image[/img]\r\n[img]image[/img]\r\n\r\n\r\nREPORT :\r\nGeneral\r\nComplete name : /Pirati!.Briganti.Da.Strapazzo.2012.iTALIAN.MD.CAM. XviD-deep.avi\r\nFormat : AVI\r\nFormat/Info : Audio Video Interleave\r\nFile size : 855 MiB\r\nDuration : 1h 20mn\r\nOverall bit rate : 1 485 Kbps\r\n\r\nVideo\r\nID : 0\r\nFormat : MPEG-4 Visual\r\nFormat profile : Advanced Simple@L5\r\nFormat settings, BVOP : Yes\r\nFormat settings, QPel : No\r\nFormat settings, GMC : No warppoints\r\nFormat settings, Matrix : Default (H.263)\r\nCodec ID : XVID\r\nCodec ID/Hint : XviD\r\nDuration : 1h 20mn\r\nBit rate : 1 347 Kbps\r\nWidth : 720 pixels\r\nHeight : 404 pixels\r\nDisplay aspect ratio : 16:9\r\nFrame rate : 25.000 fps\r\nColor space : YUV\r\nChroma subsampling : 4:2:0\r\nBit depth : 8 bits\r\nScan type : Progressive\r\nCompression mode : Lossy\r\nBits/(Pixel*Frame) : 0.185\r\nStream size : 776 MiB (91%)\r\nWriting library : XviD 1.2.1 (UTC 2008-12-04)\r\n\r\nAudio\r\nID : 1\r\nFormat : MPEG Audio\r\nCodec ID : 55\r\nCodec ID/Hint : MP3\r\nDuration : 1h 20mn\r\nBit rate : 128 Kbps\r\nChannel(s) : 2 channels\r\nSampling rate : 44.1 KHz\r\nCompression mode : Lossy\r\nStream size : 73.7 MiB (9%)\r\nAlignment : Aligned on interleaves\r\nInterleave, duration : 40 ms (1.00 video frame)
Pirati.avi 896.493 MB
Gathering some info...

Register and log in Isohunt and see no captcha anymore!

4000 symbols left
Hash CEE2B125CE7426805DFB80CBEE10FD7591AF42FD

Related torrents for "Pirati"