imdb
rating

6.1
Lockout

Lockout (2012)

Action, Science Fiction, Thriller

Full description

Lockout 2012 1080p BluRay x264-UNTOUCHABLES -MgB

Size 643.348 MB   0 seeders     Added 2012-04-08 10:10:01

Stream torrent
Starting‥ You need BitLord! Get it from BitLord.com
To download or stream you need BitLord. Visit them at BitLord.com
Lockout (2012)
PG_13  -  Thriller | Action | Sci-Fi  

A man wrongly convicted of conspiracy to commit espionage against the U.S. is offered his 

freedom if he can rescue the president\'s daughter from an outer space prison taken over by 

violent inmates.

Directors:
James Mather, Stephen St. Leger
Writers:
Luc Besson, James Mather, and 1 more credit »
Stars:
Guy Pearce, Maggie Grace and Peter Stormare 

WORK DONE : ADJUSTED THE BRIGHTNESS AND CONTRAST RE-ENCODED TO XVID THEN USED HANDBRAKE TO 

ENCODE AGAIN  
OVERALL A MUCH NICER TS

Format                                   : MgB
Format profile                           : Base Media / Version 2
Codec ID                                 : mp42
Duration                                 : 2h 2mn
Overall bit rate mode                    : Variable
Overall bit rate                         : 2 306 Kbps
Encoded date                             : UTC 2012-03-18 18:41:21
Tagged date                              : UTC 2012-03-18 19:52:04
Writing application                      : HandBrake 0.9.6 2012022800

Video
ID                                       : 1
Format                                   : AVC
Format/Info                              : Advanced Video Codec
Format profile                           : High@L2.2
Format settings, CABAC                   : Yes
Format settings, ReFrames                : 4 frames
Codec ID                                 : avc1
Codec ID/Info                            : Advanced Video Coding
Duration                                 : 2h 2mn
Bit rate mode                            : Variable
Bit rate                                 : 1 500 Kbps
Width                                    : 720 pixels
Height                                   : 288 pixels
Display aspect ratio                     : 2.500
Frame rate mode                          : Variable
Frame rate                               : 25.000 fps
Minimum frame rate                       : 16.667 fps
Maximum frame rate                       : 25.000 fps
Color space                              : YUV
Chroma subsampling                       : 4:2:0
Bit depth                                : 8 bits
Scan type                                : Progressive
Bits/(Pixel*Frame)                       : 0.289
Stream size                              : 1.28 GiB (65%)
Writing library                          : x264 core 120
Encoded date                             : UTC 2012-03-18 18:41:21
Tagged date                              : UTC 2012-03-18 19:52:04
Color primaries                          : BT.601-6 525, BT.1358 525, BT.1700 NTSC, SMPTE 

170M
Transfer characteristics                 : BT.709-5, BT.1361
Matrix coefficients                      : BT.601-6 525, BT.1358 525, BT.1700 NTSC, SMPTE 

170M

Audio #1
ID                                       : 2
Format                                   : AAC
Format/Info                              : Advanced Audio Codec
Format profile                           : LC
Codec ID                                 : 40
Duration                                 : 2h 2mn
Bit rate mode                            : Variable
Bit rate                                 : 160 Kbps
Maximum bit rate                         : 184 Kbps
Channel(s)                               : 2 channels
Channel positions                        : Front: L R
Sampling rate                            : 44.1 KHz
Compression mode                         : Lossy
Stream size                              : 140 MiB (7%)
Encoded date                             : UTC 2012-03-18 18:41:21
Tagged date                              : UTC 2012-03-18 19:52:04

Audio #2
ID                                       : 3
Format                                   : AC-3
Format/Info                              : Audio Coding 3
Mode extension                           : CM (complete main)
Codec ID                                 : ac-3
Duration                                 : 2h 2mn
Bit rate mode                            : Constant
Bit rate                                 : 640 Kbps
Channel(s)                               : 2 channels
Channel positions                        : Front: L R
Sampling rate                            : 44.1 KHz
Bit depth                                : 16 bits
Compression mode                         : Lossy
Stream size                              : 560 MiB (28%)
Encoded date                             : UTC 2012-03-18 18:41:21
Tagged date                              : UTC 2012-03-18 19:52:04

image
Lockout 2012 1080p BluRay x264-UNTOUCHABLES -MgB/2012 1080p BluRay x264-UNTOUCHABLES -MgB.nfo 597 B
Lockout 2012 1080p BluRay x264-UNTOUCHABLES -MgB/Lockout 2012 1080p BluRay x264-UNTOUCHABLES -MgB.avi 643.346 MB
Lockout 2012 1080p BluRay x264-UNTOUCHABLES -MgB/tracker.txt.txt 1.536 KB
Gathering some info...

Register and log in Isohunt and see no captcha anymore!

4000 symbols left
Hash 84b9d54727ef6cab029d0d407d2a6e5733d68cae

Related torrents for "Lockout 2012 1080p BluRay x264-UNTOUCHABLES -MgB"

Torrent search:

x264 2012 fullhd bd