imdb
rating

5.9
Battleship

Battleship (2012)

Action, Adventure, Science Fiction, Thriller

Full description

Battleship 2012 1080p HDDVDRip H264 AAC - KiNGDOM -MgB

Size 632.126 MB   0 seeders     Added 2012-04-08 18:42:46

Stream torrent
Starting‥ You need BitLord! Get it from BitLord.com
To download or stream you need BitLord. Visit them at BitLord.com
Battleship (2012)
Action | Sci-Fi | Thriller  -  

A fleet of ships is forced to do battle with an armada of unknown origins in order to discover and thwart their destructive goals.

Director:
Peter Berg
Writers:
Erich Hoeber, Jon Hoeber
Stars:
Alexander Skarsgård, Brooklyn Decker and Liam Neeson

WORK DONE : ADJUSTED THE BRIGHTNESS AND CONTRAST RE-ENCODED TO XVID THEN USED HANDBRAKE TO ENCODE AGAIN  
OVERALL A MUCH NICER TS

Format profile                           : Base Media / Version 2
Codec ID                                 : mp42
Duration                                 : 2h 2mn
Overall bit rate mode                    : Variable
Overall bit rate                         : 2 306 Kbps
Encoded date                             : UTC 2012-04-08 18:41:21
Tagged date                              : UTC 2012-04-08 19:52:04
Writing application                      : HandBrake 0.9.6 2012022800

Video
ID                                       : 1
Format                                   : AVC
Format/Info                              : Advanced Video Codec
Format profile                           : High@L2.2
Format settings, CABAC                   : Yes
Format settings, ReFrames                : 4 frames
Codec ID                                 : avc1
Codec ID/Info                            : Advanced Video Coding
Duration                                 : 2h 2mn
Bit rate mode                            : Variable
Bit rate                                 : 1 500 Kbps
Width                                    : 720 pixels
Height                                   : 288 pixels
Display aspect ratio                     : 2.500
Frame rate mode                          : Variable
Frame rate                               : 25.000 fps
Minimum frame rate                       : 16.667 fps
Maximum frame rate                       : 25.000 fps
Color space                              : YUV
Chroma subsampling                       : 4:2:0
Bit depth                                : 8 bits
Scan type                                : Progressive
Bits/(Pixel*Frame)                       : 0.289
Stream size                              : 1.28 GiB (65%)
Writing library                          : x264 core 120
Encoded date                             : UTC 2012-04-08 18:41:21
Tagged date                              : UTC 2012-04-08 19:52:04
Color primaries                          : BT.601-6 525, BT.1358 525, BT.1700 NTSC, SMPTE 170M
Transfer characteristics                 : BT.709-5, BT.1361
Matrix coefficients                      : BT.601-6 525, BT.1358 525, BT.1700 NTSC, SMPTE 170M

Audio #1
ID                                       : 2
Format                                   : AAC
Format/Info                              : Advanced Audio Codec
Format profile                           : LC
Codec ID                                 : 40
Duration                                 : 2h 2mn
Bit rate mode                            : Variable
Bit rate                                 : 160 Kbps
Maximum bit rate                         : 184 Kbps
Channel(s)                               : 2 channels
Channel positions                        : Front: L R
Sampling rate                            : 44.1 KHz
Compression mode                         : Lossy
Stream size                              : 140 MiB (7%)
Encoded date                             : UTC 2012-04-08 18:41:21
Tagged date                              : UTC 2012-04-08 19:52:04

Audio #2
ID                                       : 3
Format                                   : AC-3
Format/Info                              : Audio Coding 3
Mode extension                           : CM (complete main)
Codec ID                                 : ac-3
Duration                                 : 2h 2mn
Bit rate mode                            : Constant
Bit rate                                 : 640 Kbps
Channel(s)                               : 2 channels
Channel positions                        : Front: L R
Sampling rate                            : 44.1 KHz
Bit depth                                : 16 bits
Compression mode                         : Lossy
Stream size                              : 560 MiB (28%)
Encoded date                             : UTC 2012-04-08 18:41:21
Tagged date                              : UTC 2012-04-08 19:52:04

image
Battleship 2012 1080p HDDVDRip H264 AAC - KiNGDOM -MgB/Battleship 2012 720P LIMITED 720p BluRay x264-SPARKS [PublicHD]-MgB.avi 632.126 MB
Gathering some info...

Register and log in Isohunt and see no captcha anymore!

4000 symbols left
Hash 270431c0891efa79ba813e587fa02ef117e9f8c0

Related torrents for "Battleship 2012 1080p HDDVDRip H264 AAC - KiNGDOM -MgB"

Torrent search:

h264 2012 fullhd