imdb
rating

6.7
American Reunion

American Reunion (2012)

Comedy

Full description

American Reunion (2012) DVDScR XviD.AC3 - APEX

Size 3.659 MB   61 seeders     Added 2012-04-09 02:50:15

Stream torrent
Starting‥ You need BitLord! Get it from 1BitLord.com
To download or stream you need BitLord. Visit them at BitLord.com
IMDb: http://www.imdb.com/title/tt1605630/ ------------------------------------------- American Reunion (2012) DVDScR_XviD.AC3 - APEX ---------------------------------------------- Sample.....................: Yes Sample Size................: 11.2 Mib ------------------------------------- Details: ------- Video ID : 0 Format : MPEG-4 Visual Format profile : AdvancedSimple@L5 Format settings, BVOP : Yes Format settings, QPel : No Format settings, GMC : No warppoints Format settings, Matrix : Custom Codec ID : XVID Codec ID/Hint : XviD Duration : 1h 53mn Bit rate : 1 625 Kbps Width : 720 pixels Height : 304 pixels Display aspect ratio : 2.35:1 Frame rate : 23.976 fps Resolution : 24 bits Colorimetry : 4:2:0 Scan type : Progressive Bits/(Pixel*Frame) : 0.310 Stream size : 691 MiB (99%) Writing library : XviD 58 Audio ID : 1 Format : AC-3 Format/Info : Audio Coding 3 Codec ID : 2000 Duration : 1h 53mn Bit rate mode : Constant Bit rate : 192 Kbps Channel(s) : 2 channels Channel positions : L R Sampling rate : 48.0 KHz Stream size : 147 MiB (11%) Alignment : Aligned on interleaves Interleave, duration : 64 ms (1.53 video frames) Interleave, preload duration : 192 ms ----------------------------------------- Plot: ---- Jim, Michelle, Stifler, and their friends reunite in East Great Falls, Michigan for their high school reunion. --------------------------------------------------- Screenshots: ----------- ----------------
Fort Minor - Remember The Name.mp3 3.659 MB
Gathering some info...

Register and log in Isohunt and see no captcha anymore!

4000 symbols left
Hash 2C554601E4294280F6DF38AE5BEC54B48D6ADD26

Related torrents for "American Reunion (2012) DVDScR XviD.AC3 - APEX"

Torrent search:

screener 2012