imdb
rating

7.1
Margin Call

Margin Call (2011)

Drama, Thriller

Full description

Margin Call 2011 DVD9rip English Klam

Size 1.401 GB   5 seeders     Added 2012-04-10 02:46:43

Stream torrent
Starting‥ You need BitLord! Get it from BitLord.com
10
To download or stream you need BitLord. Visit them at BitLord.com
With: Kevin Spacey, Paul Bettany and Jeremy Irons\r\n\r\nEen grote investeringsbank verkoopt, ondanks de grote risico’s en de vele waarschuwingen, riskante investeringspakketten aan hun cliënten. Op een late avond ontdekken twee jonge werknemers dat het onderpand van de bank om eventuele verliezen te kunnen compenseren niet meer volstaat en dat het bedrijf op een grote ramp afstevent. Omdat heel Wall Street van deze slechte investeringen probeert af te komen, realiseren ze zich tot hun grote schrik dat de markt op het punt staat in te storten. Er wordt een nachtelijke vergadering georganiseerd met de top van de bank, waarbij gekozen moet worden tussen twee opties: de bank ten onder laten gaan of toch proberen de riskante pakketten te verkopen.\r\n\r\nFollows the key people at an investment bank, over a 24-hour period, during the early stages of the financial crisis. \r\n\r\nhttp://www.imdb.com/title/tt1615147\r\n\r\n[COLOR=#3300FF]------------------------ Dutch Friends ------------------------\r\n---------------------------------------------------------------\r\n- Bezoek ook eens mijn vrienden op:  http://www.Film-Test.nl --\r\n----- voor mijn Nederlandse Sync. ondertitels ---- en meer ----\r\n------- http://www.Film-Test.nl ---- voor Films en meer -------\r\n---------------------------------------------------------------[/COLOR]\r\n\r\nGeneral:\r\n\r\nComplete name                    : Margin Call\\Margin Call.avi\r\nFormat                           : AVI\r\nFormat/Info                      : Audio Video Interleave\r\nFile size                        : 1.30 GiB\r\nDuration                         : 1h 42mn\r\nOverall bit rate                 : 1 829 Kbps\r\n\r\nVideo:\r\n\r\nFormat                           : MPEG-4 Visual\r\nFormat profile                   : Simple@L3\r\nFormat settings, BVOP            : No\r\nFormat settings, QPel            : No\r\nFormat settings, GMC             : No warppoints\r\nFormat settings, Matrix          : Default (H.263)\r\nCodec ID                         : XVID\r\nCodec ID/Hint                    : XviD\r\nDuration                         : 1h 42mn\r\nBit rate                         : 1 370 Kbps\r\nWidth                            : 652 pixels\r\nHeight                           : 352 pixels\r\nDisplay aspect ratio             : 1.852\r\nFrame rate                       : 25.000 fps\r\nColor space                      : YUV\r\nChroma subsampling               : 4:2:0\r\nBit depth                        : 8 bits\r\nScan type                        : Progressive\r\nCompression mode                 : Lossy\r\nBits/(Pixel*Frame)               : 0.239\r\nStream size                      : 1 001 MiB (75%)\r\nWriting library                  : XviD 1.1.2 (UTC 2006-11-01)\r\n\r\nAudio:\r\n\r\nFormat                           : AC-3\r\nFormat/Info                      : Audio Coding 3\r\nMode extension                   : CM (complete main)\r\nCodec ID                         : 2000\r\nDuration                         : 1h 42mn\r\nBit rate mode                    : Constant\r\nBit rate                         : 448 Kbps\r\nChannel(s)                       : 6 channels\r\nChannel positions                : Front: L C R, Side: L R, LFE\r\nSampling rate                    : 48.0 KHz\r\nBit depth                        : 16 bits\r\nCompression mode                 : Lossy\r\nStream size                      : 327 MiB (24%)\r\nAlignment                        : Aligned on interleaves\r\nInterleave, duration             : 32 ms (0.80 video frame)\r\nInterleave, preload duration     : 32 ms
Margin Call.avi 1.401 GB
Cover/Margin Call.jpg 71.549 KB
www.Film-Test.nl.JPG 34.175 KB
Gathering some info...

Register and log in Isohunt and see no captcha anymore!

4000 symbols left
Hash 09FA9B3C762843D83783BD67ECC50F55ADD401B6

Related torrents for "Margin Call 2011 DVD9rip English Klam"

Torrent search:

english 2011