imdb
rating

6.6
John Carter

John Carter (2012)

Action, Adventure, Fantasy, Science Fiction

Full description
quality   dvdrip telesync dvd bd fullhd

John Carter 2012 R6 V2 READNFO x264 AC3-BBnRG

Size 734.859 MB   12 seeders     Added 2012-04-12 01:30:09

Stream torrent
Starting‥ You need BitLord! Get it from BitLord.com
4.6
To download or stream you need BitLord. Visit them at BitLord.com
[img]image[/img]


___     _                    ___       __    
| _ \___| |___ __ _ ___ ___  |_ _|_ _  / _|___
|   / -_) / -_) _` (_- -_)  | || ' \|  _/ _ \
|_|_\___|_\___\__,_/__/\___| |___|_||_|_| \___/
==================================================================
Format                           : Matroska
Format version                   : Version 2
File size                        : 700 MiB
Duration                         : 2h 11mn
Overall bit rate                 : 743 Kbps

Video
ID                               : 1
Format                           : AVC
Format/Info                      : Advanced Video Codec
Format profile                   : High@L3.0
Format settings, CABAC           : Yes
Format settings, ReFrames        : 6 frames
Codec ID                         : V_MPEG4/ISO/AVC
Duration                         : 2h 11mn
Bit rate                         : 609 Kbps
Width                            : 720 pixels
Height                           : 296 pixels
Display aspect ratio             : 2.40:1
Frame rate mode                  : Variable
Frame rate                       : 29.970 fps
Color space                      : YUV
Chroma subsampling               : 4:2:0
Bit depth                        : 8 bits
Scan type                        : Progressive
Bits/(Pixel*Frame)               : 0.095
Stream size                      : 566 MiB (81%)
Writing library                  : x264 core 112

Audio
ID                               : 2
Format                           : AC-3
Format/Info                      : Audio Coding 3
Mode extension                   : CM (complete main)
Codec ID                         : A_AC3
Duration                         : 2h 11mn
Bit rate mode                    : Constant
Bit rate                         : 128 Kbps
Channel(s)                       : 2 channels
Channel positions                : Front: L R
Sampling rate                    : 48.0 KHz
Bit depth                        : 16 bits
Compression mode                 : Lossy
Stream size                      : 121 MiB (17%)
___     _                    ___                 _      _   _          
| _ \___| |___ __ _ ___ ___  |   \ ___ ___ __ _ _(_)_ __| |_(_)___ _ _  
|   / -_) / -_) _` (_- -_) | |) / -_|_- _| '_| | '_ \  _| / _ \ ' \
|_|_\___|_\___\__,_/__/\___| |___/\___/__/\__|_| |_| .__/\__|_\___/_||_|
                                                 |_|                  
=================================================================
Title: John Carter (2012)

132 min  -  Action | Adventure | Fantasy  -   9 March 2012 (UK)

Plot:
Transplanted to Mars, a Civil War vet discovers a lush planet inhabited by 12-foot tall barbarians.
Finding himself a prisoner of these creatures, he escapes, only to encounter a princess who is in
desperate need of a savior.

IMDb Link: http://www.imdb.com/title/tt0401729/
___                     _  _     _          
/ __|_ _ ___ _  _ _ __  | \| |___| |_ ___ ___
| (_ | '_/ _ \ || | '_ \ | .` / _ \  _/ -_|_-<
\___|_| \___/\_,_| .__/ |_|\_\___/\__\___/__/
                |_|                        
===================================================================================================
Encoder: SMiLE

Source:
DTRG (Thanks)

Notes:
READNFO: Same as Sherlock, quality isn't the best. This release contains synced english subtitles
for the alien speaking segments.

Pretty much the same work done to this one as on Sherlock Holmes, this time I didn't the hardcoded
english subtitles though. Started off by running a few little tweaks over this, to touch up the
video, I ran a heavy denoise filter to get rid of a large amount of noise. Once that was done I
took it down to x264. Subtitles were taken from the TS .srt file I had, originally from Dank I think
so thanks for that, took a good 30 - 60 minutes to sync them but got there in the end and then added
them as a default track to the video. Won't go on any longer as i'm very tired. Enjoy!
___             _      
/ __|_ _ ___ ___| |_ ___
| (_ | '_/ -_) -_)  _|_ /
\___|_| \___\___|\__/__|
==================================================================
CrEwSaDe, Feel-Free, DiVERSiTY, TRiNiTY, WBZ, BHRG, mSD, INFERNO, CRYS, 26K, PRESTiGE & Many More.

[img]image[/img]
[url]image[/url]
[img]image[/img]
[img]image[/img]
[img]image[/img]
John Carter (2012) R6 READNFO x264 AC3-BBnRG.mkv 734.852 MB
NFO.nfo 6.531 KB
Torrent downloaded from AhaShare.com.txt 59 B
Gathering some info...

Register and log in Isohunt and see no captcha anymore!

4000 symbols left
Hash 9DFD3BF90672C4E2472FD024BC78AA776101CFFB

Related torrents for "John Carter 2012 R6 V2 READNFO x264 AC3-BBnRG"

Torrent search:

x264 2012 dvd