Panda - Envejecido En Barril De Roble (h264mp4)

Size 65.271 MB   0 seeders     Added 2012-04-12 02:39:00

Stream torrent
Starting‥ You need BitLord! Get it from 1BitLord.com
To download or stream you need BitLord. Visit them at BitLord.com
General
Format : MPEG-4
Format profile : Base Media
Codec ID : isom
File size : 62.2 MiB
Duration : 3mn 30s
Overall bit rate : 2 485 Kbps
Encoded date : UTC 2012-04-09 05:03:01
Tagged date : UTC 2012-04-09 05:03:01
Video
ID : 1
Format : AVC
Format/Info : Advanced Video Codec
Format profile : High@L3.0
Format settings, CABAC : Yes
Format settings, ReFrames : 2 frames
Codec ID : avc1
Codec ID/Info : Advanced Video Coding
Duration : 3mn 30s
Bit rate mode : Variable
Bit rate : 2 349 Kbps
Maximum bit rate : 4 699 Kbps
Width : 720 pixels
Height : 480 pixels
Display aspect ratio : 16:9
Original display aspect ratio : 16:9
Frame rate mode : Constant
Frame rate : 23.976 fps
Standard : NTSC
Color space : YUV
Chroma subsampling : 4:2:0
Bit depth : 8 bits
Scan type : Progressive
Bits/(Pixel*Frame) : 0.283
Stream size : 60.2 MiB (97%)
Audio
ID : 2
Format : AAC
Format/Info : Advanced Audio Codec
Format profile : LC
Codec ID : 40
Duration : 3mn 30s
Bit rate mode : Variable
Bit rate : 75.8 Kbps
Maximum bit rate : 84.7 Kbps
Channel(s) : 2 channels
Channel positions : Front: L R
Sampling rate : 44.1 KHz
Compression mode : Lossy
Stream size : 1.90 MiB (3%) 
Panda-EnvejecidoEnBarrilDeRoble-musicvideos-hq.net.mp4 65.271 MB
Gathering some info...

Register and log in Isohunt and see no captcha anymore!

4000 symbols left
Hash 73F86D0CD8B79AAF7A8AD93E58F6D82B660A5EDA